  0
SECTION
  2
HEADER
  9
$ACADVER
  1
AC1015
  9
$ACADMAINTVER
 70
     6
  9
$DWGCODEPAGE
  3
DOS932
  9
$INSBASE
 10
0.0
 20
0.0
 30
0.0
  9
$EXTMIN
 10
0.0
 20
0.0
 30
0.0
  9
$EXTMAX
 10
420.0
 20
297.0
 30
0.0
  9
$LIMMIN
 10
0.0
 20
0.0
  9
$LIMMAX
 10
420.0
 20
297.0
  9
$ORTHOMODE
 70
     0
  9
$REGENMODE
 70
     1
  9
$FILLMODE
 70
     1
  9
$QTEXTMODE
 70
     0
  9
$MIRRTEXT
 70
     1
  9
$LTSCALE
 40
0.25
  9
$ATTMODE
 70
     1
  9
$TEXTSIZE
 40
5.0
  9
$TRACEWID
 40
0.05
  9
$TEXTSTYLE
  7
Standard
  9
$CLAYER
  8
0
  9
$CELTYPE
  6
Continuous
  9
$CECOLOR
 62
   256
  9
$CELTSCALE
 40
1.0
  9
$DISPSILH
 70
     0
  9
$DIMSCALE
 40
1.0
  9
$DIMASZ
 40
3.0
  9
$DIMEXO
 40
2.0
  9
$DIMDLI
 40
10.0
  9
$DIMRND
 40
0.0
  9
$DIMDLE
 40
0.0
  9
$DIMEXE
 40
1.0
  9
$DIMTP
 40
0.0
  9
$DIMTM
 40
0.0
  9
$DIMTXT
 40
5.0
  9
$DIMCEN
 40
0.09
  9
$DIMTSZ
 40
0.0
  9
$DIMTOL
 70
     0
  9
$DIMLIM
 70
     0
  9
$DIMTIH
 70
     0
  9
$DIMTOH
 70
     0
  9
$DIMSE1
 70
     0
  9
$DIMSE2
 70
     0
  9
$DIMTAD
 70
     3
  9
$DIMZIN
 70
     0
  9
$DIMBLK
  1

  9
$DIMASO
 70
     1
  9
$DIMSHO
 70
     1
  9
$DIMPOST
  1

  9
$DIMAPOST
  1

  9
$DIMALT
 70
     0
  9
$DIMALTD
 70
     2
  9
$DIMALTF
 40
25.4
  9
$DIMLFAC
 40
1.0
  9
$DIMTOFL
 70
     1
  9
$DIMTVP
 40
0.7
  9
$DIMTIX
 70
     0
  9
$DIMSOXD
 70
     0
  9
$DIMSAH
 70
     0
  9
$DIMBLK1
  1

  9
$DIMBLK2
  1

  9
$DIMSTYLE
  2
Standard
  9
$DIMCLRD
 70
     0
  9
$DIMCLRE
 70
     0
  9
$DIMCLRT
 70
     0
  9
$DIMTFAC
 40
0.5
  9
$DIMGAP
 40
0.0
  9
$DIMJUST
 70
     0
  9
$DIMSD1
 70
     0
  9
$DIMSD2
 70
     0
  9
$DIMTOLJ
 70
     1
  9
$DIMTZIN
 70
     0
  9
$DIMALTZ
 70
     0
  9
$DIMALTTZ
 70
     0
  9
$DIMUPT
 70
     0
  9
$DIMDEC
 70
     3
  9
$DIMTDEC
 70
     4
  9
$DIMALTU
 70
     2
  9
$DIMALTTD
 70
     2
  9
$DIMTXSTY
  7
Standard
  9
$DIMAUNIT
 70
     0
  9
$DIMADEC
 70
     0
  9
$DIMALTRND
 40
0.0
  9
$DIMAZIN
 70
     0
  9
$DIMDSEP
 70
     0
  9
$DIMATFIT
 70
     3
  9
$DIMFRAC
 70
     0
  9
$DIMLDRBLK
  1

  9
$DIMLUNIT
 70
     2
  9
$DIMLWD
 70
     0
  9
$DIMLWE
 70
     0
  9
$DIMTMOVE
 70
     0
  9
$LUNITS
 70
     2
  9
$LUPREC
 70
     4
  9
$SKETCHINC
 40
0.1
  9
$FILLETRAD
 40
0.0
  9
$AUNITS
 70
     0
  9
$AUPREC
 70
     0
  9
$MENU
  1
acad
  9
$ELEVATION
 40
0.0
  9
$PELEVATION
 40
0.0
  9
$THICKNESS
 40
0.0
  9
$LIMCHECK
 70
     0
  9
$CHAMFERA
 40
0.0
  9
$CHAMFERB
 40
0.0
  9
$CHAMFERC
 40
0.0
  9
$CHAMFERD
 40
0.0
  9
$SKPOLY
 70
     0
  9
$TDCREATE
 40
2454417.683043981
  9
$TDUCREATE
 40
0.000000000
  9
$TDUPDATE
 40
2454417.683043981
  9
$TDUUPDATE
 40
0.000000000
  9
$TDINDWG
 40
0.0000000000
  9
$TDUSRTIMER
 40
0.0000000000
  9
$USRTIMER
 70
     1
  9
$ANGBASE
 50
0.0
  9
$ANGDIR
 70
     0
  9
$PDMODE
 70
     0
  9
$PDSIZE
 40
0.0
  9
$PLINEWID
 40
0.0
  9
$SPLFRAME
 70
     0
  9
$SPLINETYPE
 70
     6
  9
$SPLINESEGS
 70
     8
  9
$HANDSEED
  5
3DD
  9
$SURFTAB1
 70
     6
  9
$SURFTAB2
 70
     6
  9
$SURFTYPE
 70
     6
  9
$SURFU
 70
     6
  9
$SURFV
 70
     6
  9
$UCSBASE
  2

  9
$UCSNAME
  2

  9
$UCSORG
 10
0.0
 20
0.0
 30
0.0
  9
$UCSXDIR
 10
1.0
 20
0.0
 30
0.0
  9
$UCSYDIR
 10
0.0
 20
1.0
 30
0.0
  9
$UCSORTHOREF
  2

  9
$UCSORTHOVIEW
 70
     0
  9
$UCSORGTOP
 10
0.0
 20
0.0
 30
0.0
  9
$UCSORGBOTTOM
 10
0.0
 20
0.0
 30
0.0
  9
$UCSORGLEFT
 10
0.0
 20
0.0
 30
0.0
  9
$UCSORGRIGHT
 10
0.0
 20
0.0
 30
0.0
  9
$UCSORGFRONT
 10
0.0
 20
0.0
 30
0.0
  9
$UCSORGBACK
 10
0.0
 20
0.0
 30
0.0
  9
$PUCSBASE
  2

  9
$PUCSNAME
  2

  9
$PUCSORG
 10
0.0
 20
0.0
 30
0.0
  9
$PUCSXDIR
 10
1.0
 20
0.0
 30
0.0
  9
$PUCSYDIR
 10
0.0
 20
1.0
 30
0.0
  9
$PUCSORTHOREF
  2

  9
$PUCSORTHOVIEW
 70
     0
  9
$PUCSORGTOP
 10
0.0
 20
0.0
 30
0.0
  9
$PUCSORGBOTTOM
 10
0.0
 20
0.0
 30
0.0
  9
$PUCSORGLEFT
 10
0.0
 20
0.0
 30
0.0
  9
$PUCSORGRIGHT
 10
0.0
 20
0.0
 30
0.0
  9
$PUCSORGFRONT
 10
0.0
 20
0.0
 30
0.0
  9
$PUCSORGBACK
 10
0.0
 20
0.0
 30
0.0
  9
$USERI1
 70
     0
  9
$USERI2
 70
     0
  9
$USERI3
 70
     0
  9
$USERI4
 70
     0
  9
$USERI5
 70
     0
  9
$USERR1
 40
0.0
  9
$USERR2
 40
0.0
  9
$USERR3
 40
0.0
  9
$USERR4
 40
0.0
  9
$USERR5
 40
0.0
  9
$WORLDVIEW
 70
     1
  9
$SHADEDGE
 70
     3
  9
$SHADEDIF
 70
    70
  9
$TILEMODE
 70
     1
  9
$MAXACTVP
 70
    16
  9
$PINSBASE
 10
0.0
 20
0.0
 30
0.0
  9
$PLIMCHECK
 70
     0
  9
$PEXTMIN
 10
0.0
 20
0.0
 30
0.0
  9
$PEXTMAX
 10
420.0
 20
297.0
 30
0.0
  9
$PLIMMIN
 10
0.0
 20
0.0
  9
$PLIMMAX
 10
420.0
 20
297.0
  9
$UNITMODE
 70
     0
  9
$VISRETAIN
 70
     0
  9
$PLINEGEN
 70
     1
  9
$PSLTSCALE
 70
     0
  9
$TREEDEPTH
 70
  3020
  9
$CMLSTYLE
  2
Standard
  9
$CMLJUST
 70
     0
  9
$CMLSCALE
 40
1.0
  9
$PROXYGRAPHICS
 70
     0
  9
$MEASUREMENT
 70
     0
  9
$CELWEIGHT
370
     0
  9
$ENDCAPS
280
     0
  9
$JOINSTYLE
280
     0
  9
$LWDISPLAY
290
     0
  9
$INSUNITS
 70
     0
  9
$HYPERLINKBASE
  1

  9
$XEDIT
290
     1
  9
$CEPSNTYPE
380
     0
  9
$PSTYLEMODE
290
     1
  9
$FINGERPRINTGUID
  2

  9
$VERSIONGUID
  2

  9
$EXTNAMES
290
     1
  9
$PSVPSCALE
 40
0.0
  0
ENDSEC
  0
SECTION
  2
CLASSES
  0
CLASS
  1
LWPOLYLINE
  2
AcDbPolyline
  3
AutoCAD 2000
 90
    32768
280
     0
281
     1
  0
CLASS
  1
IMAGE
  2
AcDbRasterImage
  3
ISM
 90
    32895
280
     0
281
     1
  0
CLASS
  1
OLE2FRAME
  2
AcDbOle2Frame
  3
AutoCAD 2000
 90
    32768
280
     0
281
     1
  0
CLASS
  1
HATCH
  2
AcDbHatch
  3
AutoCAD 2000
 90
    32768
280
     0
281
     1
  0
CLASS
  1
DICTIONARYVAR
  2
AcDbDictionaryVar
  3
AutoCAD 2000
 90
    32768
280
     0
281
     0
  0
CLASS
  1
RASTERVARIABLES
  2
AcDbRasterVariables
  3
ISM
 90
    32768
280
     0
281
     0
  0
CLASS
  1
IMAGEDEF
  2
AcDbRasterImageDef
  3
ISM
 90
    32768
280
     0
281
     0
  0
CLASS
  1
IMAGEDEF_REACTOR
  2
AcDbRasterImageDefReactor
  3
ISM
 90
    32769
280
     0
281
     0
  0
CLASS
  1
IDBUFFER
  2
AcDbIdBuffer
  3
AutoCAD 2000
 90
    32768
280
     0
281
     0
  0
CLASS
  1
SPATIAL_FILTER
  2
AcDbSpatialFilter
  3
AutoCAD 2000
 90
    32768
280
     0
281
     0
  0
CLASS
  1
XRECORD
  2
AcDbXrecord
  3
AutoCAD 2000
 90
    32768
280
     0
281
     0
  0
CLASS
  1
SORTENTSTABLE
  2
AcDbSortentsTable
  3
AutoCAD 2000
 90
    32768
280
     0
281
     0
  0
CLASS
  1
LAYER_INDEX
  2
AcDbLayerIndex
  3
AutoCAD 2000
 90
    32768
280
     0
281
     0
  0
CLASS
  1
SPATIAL_INDEX
  2
AcDbSpatialIndex
  3
AutoCAD 2000
 90
    32768
280
     0
281
     0
  0
CLASS
  1
OBJECT_PTR
  2
CAseDLPNTableRecord
  3
"ASE-LPNTableRecord"
 90
    32769
280
     0
281
     0
  0
CLASS
  1
LAYOUT
  2
AcDbLayout
  3
AutoCAD 2000
 90
        0
280
     0
281
     0
  0
CLASS
  1
PLOTSETTINGS
  2
AcDbPlotSettings
  3
AutoCAD 2000
 90
    32768
280
     0
281
     0
  0
CLASS
  1
ACDBDICTIONARYWDFLT
  2
AcDbDictionaryWithDefault
  3
AutoCAD 2000
 90
        0
280
     0
281
     0
  0
CLASS
  1
ACDBPLACEHOLDER
  2
AcDbPlaceHolder
  3
AutoCAD 2000
 90
        0
280
     0
281
     0
  0
CLASS
  1
VBA_PROJECT
  2
AcDbVbaProject
  3
acadvba
 90
    32768
280
     0
281
     0
  0
CLASS
  1
WIPEOUT
  2
AcDbWipeout
  3
WipeOut|AutoCAD Express Tool|expresstools@autodesk.com
 90
    32895
280
     0
281
     1
  0
CLASS
  1
WIPEOUTVARIABLES
  2
AcDbWipeoutVariables
  3
WipeOut|AutoCAD Express Tool|expresstools@autodesk.com
 90
        0
280
     0
281
     0
  0
CLASS
  1
RTEXT
  2
RText
  3
RText|AutoCAD Express Tool|expresstools@autodesk.com
 90
    32768
280
     0
281
     1
  0
CLASS
  1
ARCALIGNEDTEXT
  2
AcDbArcAlignedText
  3
ATEXT|AutoCAD Express Tool|expresstools@autodesk.com
 90
    32768
280
     0
281
     1
  0
ENDSEC
  0
SECTION
  2
TABLES
  0
TABLE
  2
VPORT
  5
7
100
AcDbSymbolTable
 70
     1
  0
VPORT
  5
15
100
AcDbSymbolTableRecord
100
AcDbViewportTableRecord
  2
*ACTIVE
 70
     0
 10
0.0
 20
0.0
 11
1.0
 21
1.0
 12
6.591288
 22
4.579184
 13
0.0
 23
0.0
 14
1.0
 24
1.0
 15
0.0
 25
0.0
 16
0.0
 26
0.0
 36
1.0
 17
0.0
 27
0.0
 37
0.0
 40
9.158369
 41
0.688564
 42
50.0
 43
0.0
 44
0.0
 50
0.0
 51
0.0
 71
     0
 72
   100
 73
     1
 74
     1
 75
     0
 76
     0
 77
     0
 78
     0
281
     0
 65
     0
110
0.0
120
0.0
130
0.0
111
1.0
121
0.0
131
0.0
112
0.0
122
1.0
132
0.0
345
0
346
0
 79
     0
146
0.0
  0
ENDTAB
  0
TABLE
  2
LTYPE
  5
4
100
AcDbSymbolTable
 70
     9
  0
LTYPE
  5
11
100
AcDbSymbolTableRecord
100
AcDbLinetypeTableRecord
  2
ByBlock
 70
    64
  3

 72
    65
 73
     0
 40
0.0
  0
LTYPE
  5
12
100
AcDbSymbolTableRecord
100
AcDbLinetypeTableRecord
  2
ByLayer
 70
    64
  3

 72
    65
 73
     0
 40
0.0
  0
LTYPE
  5
13
100
AcDbSymbolTableRecord
100
AcDbLinetypeTableRecord
  2
Continuous
 70
    64
  3
Solid line
 72
    65
 73
     0
 40
0.0
  0
LTYPE
  5
25
100
AcDbSymbolTableRecord
100
AcDbLinetypeTableRecord
  2
HIDDEN
 70
    64
  3
- - - - - - - - 
 72
    65
 73
     2
 40
12.6
 49
8.4
 74
     0
 49
-4.2
 74
     0
  0
LTYPE
  5
26
100
AcDbSymbolTableRecord
100
AcDbLinetypeTableRecord
  2
DOT
 70
    64
  3
･ ･ ･ ･ ･ ･ ･ ･ 
 72
    65
 73
     2
 40
8.0
 49
6.0
 74
     0
 49
-2.0
 74
     0
  0
LTYPE
  5
27
100
AcDbSymbolTableRecord
100
AcDbLinetypeTableRecord
  2
CENTER
 70
    64
  3
- ･ - ･ - ･ - ･ 
 72
    65
 73
     4
 40
50.5
 49
30.0
 74
     0
 49
-9.0
 74
     0
 49
2.5
 74
     0
 49
-9.0
 74
     0
  0
LTYPE
  5
28
100
AcDbSymbolTableRecord
100
AcDbLinetypeTableRecord
  2
PHANTOM
 70
    64
  3
- ･･ - ･･ - ･･ - ･･ 
 72
    65
 73
     6
 40
58.0
 49
30.0
 74
     0
 49
-9.0
 74
     0
 49
2.5
 74
     0
 49
-5.0
 74
     0
 49
2.5
 74
     0
 49
-9.0
 74
     0
  0
LTYPE
  5
29
100
AcDbSymbolTableRecord
100
AcDbLinetypeTableRecord
  2
ACAD_ISO06W100
 70
    64
  3
____ ... ____ ... ____
 72
    65
 73
     8
 40
37.5
 49
24.0
 74
     0
 49
-3.0
 74
     0
 49
0.5
 74
     0
 49
-3.0
 74
     0
 49
0.5
 74
     0
 49
-3.0
 74
     0
 49
0.5
 74
     0
 49
-3.0
 74
     0
  0
LTYPE
  5
2A
100
AcDbSymbolTableRecord
100
AcDbLinetypeTableRecord
  2
ACAD_ISO14W100
 70
    64
  3
__ . . . __ . . . __ . . . 
 72
    65
 73
     8
 40
25.5
 49
12.0
 74
     0
 49
-3.0
 74
     0
 49
0.5
 74
     0
 49
-3.0
 74
     0
 49
0.5
 74
     0
 49
-3.0
 74
     0
 49
0.5
 74
     0
 49
-3.0
 74
     0
  0
ENDTAB
  0
TABLE
  2
LAYER
  5
2
100
AcDbSymbolTable
 70
    17
  0
LAYER
  5
14
100
AcDbSymbolTableRecord
100
AcDbLayerTableRecord
  2
0
 70
     0
 62
     7
  6
Continuous
290
     1
370
    -3
390
1D
  0
LAYER
  5
2B
100
AcDbSymbolTableRecord
100
AcDbLayerTableRecord
  2
1
 70
     0
 62
     5
  6
Continuous
290
     1
370
    -3
390
1F
  0
LAYER
  5
2C
100
AcDbSymbolTableRecord
100
AcDbLayerTableRecord
  2
2
 70
     0
 62
    94
  6
Continuous
290
     1
370
    -3
390
1F
  0
LAYER
  5
2D
100
AcDbSymbolTableRecord
100
AcDbLayerTableRecord
  2
3
 70
     0
 62
    94
  6
Continuous
290
     1
370
    -3
390
1F
  0
LAYER
  5
2E
100
AcDbSymbolTableRecord
100
AcDbLayerTableRecord
  2
4
 70
     0
 62
    94
  6
Continuous
290
     1
370
    -3
390
1F
  0
LAYER
  5
2F
100
AcDbSymbolTableRecord
100
AcDbLayerTableRecord
  2
5
 70
     0
 62
    94
  6
Continuous
290
     1
370
    -3
390
1F
  0
LAYER
  5
30
100
AcDbSymbolTableRecord
100
AcDbLayerTableRecord
  2
6
 70
     0
 62
    94
  6
Continuous
290
     1
370
    -3
390
1F
  0
LAYER
  5
31
100
AcDbSymbolTableRecord
100
AcDbLayerTableRecord
  2
7
 70
     0
 62
    94
  6
Continuous
290
     1
370
    -3
390
1F
  0
LAYER
  5
32
100
AcDbSymbolTableRecord
100
AcDbLayerTableRecord
  2
8
 70
     0
 62
    94
  6
Continuous
290
     1
370
    -3
390
1F
  0
LAYER
  5
33
100
AcDbSymbolTableRecord
100
AcDbLayerTableRecord
  2
9
 70
     0
 62
    94
  6
Continuous
290
     1
370
    -3
390
1F
  0
LAYER
  5
34
100
AcDbSymbolTableRecord
100
AcDbLayerTableRecord
  2
10
 70
     0
 62
    94
  6
Continuous
290
     1
370
    -3
390
1F
  0
LAYER
  5
35
100
AcDbSymbolTableRecord
100
AcDbLayerTableRecord
  2
11
 70
     0
 62
    94
  6
Continuous
290
     1
370
    -3
390
1F
  0
LAYER
  5
36
100
AcDbSymbolTableRecord
100
AcDbLayerTableRecord
  2
12
 70
     0
 62
    94
  6
Continuous
290
     1
370
    -3
390
1F
  0
LAYER
  5
37
100
AcDbSymbolTableRecord
100
AcDbLayerTableRecord
  2
13
 70
     0
 62
     7
  6
Continuous
290
     1
370
    -3
390
1F
  0
LAYER
  5
38
100
AcDbSymbolTableRecord
100
AcDbLayerTableRecord
  2
14
 70
     0
 62
     7
  6
Continuous
290
     1
370
    -3
390
1F
  0
LAYER
  5
39
100
AcDbSymbolTableRecord
100
AcDbLayerTableRecord
  2
15
 70
     0
 62
   134
  6
Continuous
290
     1
370
    -3
390
1F
  0
LAYER
  5
3A
100
AcDbSymbolTableRecord
100
AcDbLayerTableRecord
  2
16
 70
     0
 62
   174
  6
Continuous
290
     1
370
    -3
390
1F
  0
ENDTAB
  0
TABLE
  2
STYLE
  5
3
100
AcDbSymbolTable
 70
     2
  0
STYLE
  5
17
100
AcDbSymbolTableRecord
100
AcDbTextStyleTableRecord
  2
Standard
 70
     0
 40
0.0
 41
1.0
 50
0.0
 71
     0
 42
0.0
  3
txt
  4
bigfont
  0
STYLE
  5
24
100
AcDbSymbolTableRecord
100
AcDbTextStyleTableRecord
  2
T_STANDARD
 70
    68
 40
10.0
 41
1.0
 50
0.0
 71
     0
 42
10.0
  3
txt
  4
bigfont
  0
ENDTAB
  0
TABLE
  2
VIEW
  5
5
100
AcDbSymbolTable
 70
     0
  0
ENDTAB
  0
TABLE
  2
UCS
  5
6
100
AcDbSymbolTable
 70
     0
  0
ENDTAB
  0
TABLE
  2
APPID
  5
8
100
AcDbSymbolTable
 70
     1
  0
APPID
  5
16
100
AcDbSymbolTableRecord
100
AcDbRegAppTableRecord
  2
ACAD
 70
     0
  0
ENDTAB
  0
TABLE
  2
DIMSTYLE
  5
9
100
AcDbSymbolTable
 70
     1
100
AcDbDimStyleTable
 71
     0
  0
DIMSTYLE
105
18
100
AcDbSymbolTableRecord
100
AcDbDimStyleTableRecord
  2
Standard
 70
     0
  3

  4

 40
1.0
 41
0.18
 42
0.0625
 43
0.38
 44
0.18
 45
0.0
 46
0.0
 47
0.0
 48
0.0
 71
     0
 72
     0
 73
     1
 74
     1
 75
     0
 76
     0
 77
     0
 78
     0
 79
     0
140
0.18
141
0.09
142
0.0
143
25.4
144
1.0
145
0.0
146
1.0
147
0.09
148
0.0
170
     0
171
     2
172
     0
173
     0
174
     0
175
     0
176
     0
177
     0
178
     0
179
     0
271
     4
272
     4
273
     2
274
     2
275
     0
276
     0
277
     2
278
    46
279
     0
280
     0
281
     0
282
     0
283
     1
284
     0
285
     0
286
     0
288
     0
340
17
341
0
342
0
343
0
344
0
371
    -2
372
    -2
  0
ENDTAB
  0
TABLE
  2
BLOCK_RECORD
  5
1
100
AcDbSymbolTable
 70
    42
  0
BLOCK_RECORD
  5
A
100
AcDbSymbolTableRecord
100
AcDbBlockTableRecord
  2
*MODEL_SPACE
340
20
  0
BLOCK_RECORD
  5
B
100
AcDbSymbolTableRecord
100
AcDbBlockTableRecord
  2
*PAPER_SPACE
340
21
  0
BLOCK_RECORD
  5
3B
100
AcDbSymbolTableRecord
100
AcDbBlockTableRecord
  2
*G0
340
0
102
{BLKREFS
331
3E
102
}
  0
BLOCK_RECORD
  5
3F
100
AcDbSymbolTableRecord
100
AcDbBlockTableRecord
  2
*G1
340
0
102
{BLKREFS
331
5B
102
}
  0
BLOCK_RECORD
  5
5C
100
AcDbSymbolTableRecord
100
AcDbBlockTableRecord
  2
*G2
340
0
102
{BLKREFS
331
6A
102
}
  0
BLOCK_RECORD
  5
6B
100
AcDbSymbolTableRecord
100
AcDbBlockTableRecord
  2
*G3
340
0
102
{BLKREFS
331
7A
102
}
  0
BLOCK_RECORD
  5
7B
100
AcDbSymbolTableRecord
100
AcDbBlockTableRecord
  2
*G4
340
0
102
{BLKREFS
331
97
102
}
  0
BLOCK_RECORD
  5
98
100
AcDbSymbolTableRecord
100
AcDbBlockTableRecord
  2
*G5
340
0
102
{BLKREFS
331
F2
102
}
  0
BLOCK_RECORD
  5
9A
100
AcDbSymbolTableRecord
100
AcDbBlockTableRecord
  2
*G6
340
0
102
{BLKREFS
331
9D
102
}
  0
BLOCK_RECORD
  5
A3
100
AcDbSymbolTableRecord
100
AcDbBlockTableRecord
  2
*G7
340
0
102
{BLKREFS
331
A9
102
}
  0
BLOCK_RECORD
  5
AB
100
AcDbSymbolTableRecord
100
AcDbBlockTableRecord
  2
*G8
340
0
102
{BLKREFS
331
EA
102
}
  0
BLOCK_RECORD
  5
F3
100
AcDbSymbolTableRecord
100
AcDbBlockTableRecord
  2
*D9
340
0
  0
BLOCK_RECORD
  5
FF
100
AcDbSymbolTableRecord
100
AcDbBlockTableRecord
  2
*D10
340
0
  0
BLOCK_RECORD
  5
10B
100
AcDbSymbolTableRecord
100
AcDbBlockTableRecord
  2
*D11
340
0
  0
BLOCK_RECORD
  5
117
100
AcDbSymbolTableRecord
100
AcDbBlockTableRecord
  2
*D12
340
0
  0
BLOCK_RECORD
  5
123
100
AcDbSymbolTableRecord
100
AcDbBlockTableRecord
  2
*D13
340
0
  0
BLOCK_RECORD
  5
12F
100
AcDbSymbolTableRecord
100
AcDbBlockTableRecord
  2
*D14
340
0
  0
BLOCK_RECORD
  5
13B
100
AcDbSymbolTableRecord
100
AcDbBlockTableRecord
  2
*D15
340
0
  0
BLOCK_RECORD
  5
145
100
AcDbSymbolTableRecord
100
AcDbBlockTableRecord
  2
*D16
340
0
  0
BLOCK_RECORD
  5
171
100
AcDbSymbolTableRecord
100
AcDbBlockTableRecord
  2
*G17
340
0
102
{BLKREFS
331
1E3
102
}
  0
BLOCK_RECORD
  5
1ED
100
AcDbSymbolTableRecord
100
AcDbBlockTableRecord
  2
*G18
340
0
102
{BLKREFS
331
1F1
102
}
  0
BLOCK_RECORD
  5
1F2
100
AcDbSymbolTableRecord
100
AcDbBlockTableRecord
  2
*G19
340
0
102
{BLKREFS
331
1F6
102
}
  0
BLOCK_RECORD
  5
1F7
100
AcDbSymbolTableRecord
100
AcDbBlockTableRecord
  2
*D20
340
0
  0
BLOCK_RECORD
  5
203
100
AcDbSymbolTableRecord
100
AcDbBlockTableRecord
  2
*G21
340
0
102
{BLKREFS
331
280
102
}
  0
BLOCK_RECORD
  5
281
100
AcDbSymbolTableRecord
100
AcDbBlockTableRecord
  2
*G22
340
0
102
{BLKREFS
331
29C
102
}
  0
BLOCK_RECORD
  5
29D
100
AcDbSymbolTableRecord
100
AcDbBlockTableRecord
  2
*D23
340
0
  0
BLOCK_RECORD
  5
2A9
100
AcDbSymbolTableRecord
100
AcDbBlockTableRecord
  2
*D24
340
0
  0
BLOCK_RECORD
  5
2B5
100
AcDbSymbolTableRecord
100
AcDbBlockTableRecord
  2
*D25
340
0
  0
BLOCK_RECORD
  5
2C1
100
AcDbSymbolTableRecord
100
AcDbBlockTableRecord
  2
*D26
340
0
  0
BLOCK_RECORD
  5
2DD
100
AcDbSymbolTableRecord
100
AcDbBlockTableRecord
  2
*G27
340
0
102
{BLKREFS
331
2E1
102
}
  0
BLOCK_RECORD
  5
2E2
100
AcDbSymbolTableRecord
100
AcDbBlockTableRecord
  2
*G28
340
0
102
{BLKREFS
331
2E6
102
}
  0
BLOCK_RECORD
  5
2E7
100
AcDbSymbolTableRecord
100
AcDbBlockTableRecord
  2
*D29
340
0
  0
BLOCK_RECORD
  5
2F4
100
AcDbSymbolTableRecord
100
AcDbBlockTableRecord
  2
*D30
340
0
  0
BLOCK_RECORD
  5
31A
100
AcDbSymbolTableRecord
100
AcDbBlockTableRecord
  2
*G31
340
0
102
{BLKREFS
331
339
102
}
  0
BLOCK_RECORD
  5
33A
100
AcDbSymbolTableRecord
100
AcDbBlockTableRecord
  2
*D32
340
0
  0
BLOCK_RECORD
  5
346
100
AcDbSymbolTableRecord
100
AcDbBlockTableRecord
  2
*D33
340
0
  0
BLOCK_RECORD
  5
353
100
AcDbSymbolTableRecord
100
AcDbBlockTableRecord
  2
*D34
340
0
  0
BLOCK_RECORD
  5
35F
100
AcDbSymbolTableRecord
100
AcDbBlockTableRecord
  2
*D35
340
0
  0
BLOCK_RECORD
  5
36B
100
AcDbSymbolTableRecord
100
AcDbBlockTableRecord
  2
*G36
340
0
102
{BLKREFS
331
371
102
}
  0
BLOCK_RECORD
  5
372
100
AcDbSymbolTableRecord
100
AcDbBlockTableRecord
  2
*G37
340
0
102
{BLKREFS
331
379
102
}
  0
BLOCK_RECORD
  5
37A
100
AcDbSymbolTableRecord
100
AcDbBlockTableRecord
  2
*D38
340
0
  0
BLOCK_RECORD
  5
384
100
AcDbSymbolTableRecord
100
AcDbBlockTableRecord
  2
*D39
340
0
  0
BLOCK_RECORD
  5
390
100
AcDbSymbolTableRecord
100
AcDbBlockTableRecord
  2
*G40
340
0
102
{BLKREFS
331
3B1
102
}
  0
BLOCK_RECORD
  5
3B6
100
AcDbSymbolTableRecord
100
AcDbBlockTableRecord
  2
*G41
340
0
102
{BLKREFS
331
3D7
102
}
  0
ENDTAB
  0
ENDSEC
  0
SECTION
  2
BLOCKS
  0
BLOCK
  5
D
100
AcDbEntity
  8
0
100
AcDbBlockBegin
  2
*MODEL_SPACE
 70
     0
 10
0.0
 20
0.0
 30
0.0
  3
*MODEL_SPACE
  1

  0
ENDBLK
  5
E
100
AcDbEntity
  8
0
100
AcDbBlockEnd
  0
BLOCK
  5
F
100
AcDbEntity
 67
     1
  8
0
100
AcDbBlockBegin
  2
*PAPER_SPACE
 70
     0
 10
0.0
 20
0.0
 30
0.0
  3
*PAPER_SPACE
  1

  0
ENDBLK
  5
10
100
AcDbEntity
 67
     1
  8
0
100
AcDbBlockEnd
  0
BLOCK
  5
3C
100
AcDbEntity
  8
0
  6
Continuous
 62
     7
100
AcDbBlockBegin
  2
*G0
 70
     0
 10
0.0
 20
0.0
 30
0.0
  3
*G0
  1

  0
ENDBLK
  5
3D
100
AcDbEntity
  8
0
100
AcDbBlockEnd
  0
BLOCK
  5
40
100
AcDbEntity
  8
0
370
     9
  6
Continuous
 62
     7
100
AcDbBlockBegin
  2
*G1
 70
     0
 10
0.0
 20
0.0
 30
0.0
  3
*G1
  1

  0
LINE
  5
41
100
AcDbEntity
  8
14
370
    30
  6
Continuous
 62
     7
100
AcDbLine
 10
149.442128
 20
240.875144
 30
0.0
 11
159.442128
 21
240.875144
 31
0.0
  0
LINE
  5
42
100
AcDbEntity
  8
14
370
    30
  6
Continuous
 62
     7
100
AcDbLine
 10
149.442128
 20
232.67677
 30
0.0
 11
159.442128
 21
232.67677
 31
0.0
  0
LINE
  5
43
100
AcDbEntity
  8
14
370
    30
  6
Continuous
 62
     7
100
AcDbLine
 10
149.442128
 20
244.974331
 30
0.0
 11
149.442128
 21
228.577585
 31
0.0
  0
LINE
  5
44
100
AcDbEntity
  8
14
370
    30
  6
Continuous
 62
     7
100
AcDbLine
 10
149.442128
 20
228.577585
 30
0.0
 11
159.442128
 21
228.577585
 31
0.0
  0
LINE
  5
45
100
AcDbEntity
  8
14
370
    30
  6
Continuous
 62
     7
100
AcDbLine
 10
159.442128
 20
228.577585
 30
0.0
 11
159.442128
 21
244.974331
 31
0.0
  0
LINE
  5
46
100
AcDbEntity
  8
14
370
    30
  6
Continuous
 62
     7
100
AcDbLine
 10
159.442128
 20
244.974331
 30
0.0
 11
149.442128
 21
244.974331
 31
0.0
  0
LINE
  5
47
100
AcDbEntity
  8
14
370
    30
  6
Continuous
 62
     7
100
AcDbLine
 10
149.442128
 20
243.425956
 30
0.0
 11
146.442128
 21
243.425956
 31
0.0
  0
LINE
  5
48
100
AcDbEntity
  8
14
370
    30
  6
Continuous
 62
     7
100
AcDbLine
 10
146.442128
 20
243.425956
 30
0.0
 11
146.442128
 21
230.125956
 31
0.0
  0
LINE
  5
49
100
AcDbEntity
  8
14
370
    30
  6
Continuous
 62
     7
100
AcDbLine
 10
146.442128
 20
230.125956
 30
0.0
 11
149.442128
 21
230.125956
 31
0.0
  0
LINE
  5
4A
100
AcDbEntity
  8
14
370
    30
  6
Continuous
 62
     7
100
AcDbLine
 10
159.442128
 20
241.775956
 30
0.0
 11
163.442128
 21
241.775956
 31
0.0
  0
LINE
  5
4B
100
AcDbEntity
  8
14
370
    30
  6
Continuous
 62
     7
100
AcDbLine
 10
159.442128
 20
231.775956
 30
0.0
 11
163.442128
 21
231.775956
 31
0.0
  0
LINE
  5
4C
100
AcDbEntity
  8
14
370
    30
  6
Continuous
 62
     7
100
AcDbLine
 10
163.442128
 20
244.974331
 30
0.0
 11
163.442128
 21
228.577585
 31
0.0
  0
LINE
  5
4D
100
AcDbEntity
  8
14
370
    30
  6
Continuous
 62
     7
100
AcDbLine
 10
163.442128
 20
228.577585
 30
0.0
 11
170.442128
 21
228.577585
 31
0.0
  0
LINE
  5
4E
100
AcDbEntity
  8
14
370
    30
  6
Continuous
 62
     7
100
AcDbLine
 10
170.442128
 20
228.577585
 30
0.0
 11
170.442128
 21
244.974331
 31
0.0
  0
LINE
  5
4F
100
AcDbEntity
  8
14
370
    30
  6
Continuous
 62
     7
100
AcDbLine
 10
170.442128
 20
244.974331
 30
0.0
 11
163.442128
 21
244.974331
 31
0.0
  0
LINE
  5
50
100
AcDbEntity
  8
14
370
    30
  6
Continuous
 62
     7
100
AcDbLine
 10
163.442128
 20
240.875144
 30
0.0
 11
170.442128
 21
240.875144
 31
0.0
  0
LINE
  5
51
100
AcDbEntity
  8
14
370
    30
  6
Continuous
 62
     7
100
AcDbLine
 10
163.442128
 20
232.67677
 30
0.0
 11
170.442128
 21
232.67677
 31
0.0
  0
LINE
  5
52
100
AcDbEntity
  8
14
370
    30
  6
Continuous
 62
     7
100
AcDbLine
 10
170.442128
 20
243.475956
 30
0.0
 11
184.442128
 21
242.975956
 31
0.0
  0
LINE
  5
53
100
AcDbEntity
  8
14
370
    30
  6
Continuous
 62
     7
100
AcDbLine
 10
170.442128
 20
230.075956
 30
0.0
 11
184.442128
 21
230.575956
 31
0.0
  0
LINE
  5
54
100
AcDbEntity
  8
14
370
    30
  6
Continuous
 62
     7
100
AcDbLine
 10
184.442128
 20
242.975956
 30
0.0
 11
184.442128
 21
230.575956
 31
0.0
  0
LINE
  5
55
100
AcDbEntity
  8
14
370
    30
  6
Continuous
 62
     7
100
AcDbLine
 10
146.442128
 20
239.775956
 30
0.0
 11
77.442128
 21
239.775956
 31
0.0
  0
LINE
  5
56
100
AcDbEntity
  8
14
370
    30
  6
Continuous
 62
     7
100
AcDbLine
 10
146.442128
 20
233.775956
 30
0.0
 11
77.442128
 21
233.775956
 31
0.0
  0
LINE
  5
57
100
AcDbEntity
  8
14
370
    30
  6
Continuous
 62
     7
100
AcDbLine
 10
77.442128
 20
239.775956
 30
0.0
 11
77.442128
 21
233.775956
 31
0.0
  0
LINE
  5
58
100
AcDbEntity
  8
14
370
     9
  6
CENTER
 62
     1
100
AcDbLine
 10
177.442128
 20
239.253112
 30
0.0
 11
177.442128
 21
233.81511
 31
0.0
  0
LINE
  5
59
100
AcDbEntity
  8
14
370
     9
  6
CENTER
 62
     1
100
AcDbLine
 10
190.705914
 20
236.775956
 30
0.0
 11
69.161806
 21
236.775956
 31
0.0
  0
ENDBLK
  5
5A
100
AcDbEntity
  8
0
100
AcDbBlockEnd
  0
BLOCK
  5
5D
100
AcDbEntity
  8
0
370
     9
  6
Continuous
 62
     7
100
AcDbBlockBegin
  2
*G2
 70
     0
 10
0.0
 20
0.0
 30
0.0
  3
*G2
  1

  0
LINE
  5
5E
100
AcDbEntity
  8
14
370
    30
  6
Continuous
 62
     7
100
AcDbLine
 10
48.884412
 20
244.974331
 30
0.0
 11
55.984413
 21
240.875144
 31
0.0
  0
LINE
  5
5F
100
AcDbEntity
  8
14
370
    30
  6
Continuous
 62
     7
100
AcDbLine
 10
55.984413
 20
240.875144
 30
0.0
 11
55.984412
 21
232.67677
 31
0.0
  0
LINE
  5
60
100
AcDbEntity
  8
14
370
    30
  6
Continuous
 62
     7
100
AcDbLine
 10
55.984412
 20
232.67677
 30
0.0
 11
48.884412
 21
228.577585
 31
0.0
  0
LINE
  5
61
100
AcDbEntity
  8
14
370
    30
  6
Continuous
 62
     7
100
AcDbLine
 10
48.884412
 20
244.974331
 30
0.0
 11
41.784411
 21
240.875144
 31
0.0
  0
LINE
  5
62
100
AcDbEntity
  8
14
370
    30
  6
Continuous
 62
     7
100
AcDbLine
 10
41.784411
 20
240.875144
 30
0.0
 11
41.784412
 21
232.67677
 31
0.0
  0
LINE
  5
63
100
AcDbEntity
  8
14
370
    30
  6
Continuous
 62
     7
100
AcDbLine
 10
41.784412
 20
232.67677
 30
0.0
 11
48.884412
 21
228.577585
 31
0.0
  0
CIRCLE
  5
64
100
AcDbEntity
  8
14
370
    30
  6
Continuous
 62
     7
100
AcDbCircle
 10
48.884412
 20
236.775956
 30
0.0
 40
3.0
  0
CIRCLE
  5
65
100
AcDbEntity
  8
14
370
    30
  6
Continuous
 62
     7
100
AcDbCircle
 10
48.884412
 20
236.775956
 30
0.0
 40
2.0
  0
CIRCLE
  5
66
100
AcDbEntity
  8
14
370
    30
  6
Continuous
 62
     7
100
AcDbCircle
 10
48.884412
 20
236.775956
 30
0.0
 40
6.65
  0
LINE
  5
67
100
AcDbEntity
  8
14
370
     9
  6
CENTER
 62
     1
100
AcDbLine
 10
39.781421
 20
236.775956
 30
0.0
 11
58.076124
 21
236.775956
 31
0.0
  0
LINE
  5
68
100
AcDbEntity
  8
14
370
     9
  6
CENTER
 62
     1
100
AcDbLine
 10
48.884412
 20
247.637193
 30
0.0
 11
48.884412
 21
224.977763
 31
0.0
  0
ENDBLK
  5
69
100
AcDbEntity
  8
0
100
AcDbBlockEnd
  0
BLOCK
  5
6C
100
AcDbEntity
  8
0
370
     9
  6
Continuous
 62
     7
100
AcDbBlockBegin
  2
*G3
 70
     0
 10
0.0
 20
0.0
 30
0.0
  3
*G3
  1

  0
LINE
  5
6D
100
AcDbEntity
  8
14
370
    30
  6
Continuous
 62
     7
100
AcDbLine
 10
236.488779
 20
246.100087
 30
0.0
 11
245.888779
 21
240.672994
 31
0.0
  0
LINE
  5
6E
100
AcDbEntity
  8
14
370
    30
  6
Continuous
 62
     7
100
AcDbLine
 10
245.888779
 20
240.672994
 30
0.0
 11
245.888779
 21
229.81881
 31
0.0
  0
LINE
  5
6F
100
AcDbEntity
  8
14
370
    30
  6
Continuous
 62
     7
100
AcDbLine
 10
245.888779
 20
229.81881
 30
0.0
 11
236.488779
 21
224.391718
 31
0.0
  0
ARC
  5
70
100
AcDbEntity
  8
14
370
    30
  6
Continuous
 62
     7
100
AcDbCircle
 10
236.488779
 20
235.245902
 30
0.0
 40
9.25
100
AcDbArc
 50
-90.0
 51
90.0
  0
LINE
  5
71
100
AcDbEntity
  8
14
370
    30
  6
Continuous
 62
     7
100
AcDbLine
 10
236.488779
 20
246.100087
 30
0.0
 11
227.088779
 21
240.672994
 31
0.0
  0
LINE
  5
72
100
AcDbEntity
  8
14
370
    30
  6
Continuous
 62
     7
100
AcDbLine
 10
227.088779
 20
240.672994
 30
0.0
 11
227.088779
 21
229.81881
 31
0.0
  0
LINE
  5
73
100
AcDbEntity
  8
14
370
    30
  6
Continuous
 62
     7
100
AcDbLine
 10
227.088779
 20
229.81881
 30
0.0
 11
236.488779
 21
224.391718
 31
0.0
  0
ARC
  5
74
100
AcDbEntity
  8
14
370
    30
  6
Continuous
 62
     7
100
AcDbCircle
 10
236.488779
 20
235.245902
 30
0.0
 40
9.25
100
AcDbArc
 50
90.0
 51
-90.0
  0
CIRCLE
  5
75
100
AcDbEntity
  8
14
370
    30
  6
Continuous
 62
     7
100
AcDbCircle
 10
236.48878
 20
235.245902
 30
0.0
 40
5.0
  0
CIRCLE
  5
76
100
AcDbEntity
  8
14
370
    30
  6
Continuous
 62
     7
100
AcDbCircle
 10
236.48878
 20
235.245902
 30
0.0
 40
3.9
  0
LINE
  5
77
100
AcDbEntity
  8
14
370
     9
  6
CENTER
 62
     1
100
AcDbLine
 10
223.387978
 20
235.245902
 30
0.0
 11
250.902744
 21
235.245902
 31
0.0
  0
LINE
  5
78
100
AcDbEntity
  8
14
370
     9
  6
CENTER
 62
     1
100
AcDbLine
 10
236.488779
 20
251.601345
 30
0.0
 11
236.488779
 21
219.998039
 31
0.0
  0
ENDBLK
  5
79
100
AcDbEntity
  8
0
100
AcDbBlockEnd
  0
BLOCK
  5
7C
100
AcDbEntity
  8
0
370
     9
  6
Continuous
 62
     7
100
AcDbBlockBegin
  2
*G4
 70
     0
 10
0.0
 20
0.0
 30
0.0
  3
*G4
  1

  0
LINE
  5
7D
100
AcDbEntity
  8
14
370
    30
  6
Continuous
 62
     7
100
AcDbLine
 10
337.39301
 20
244.495902
 30
0.0
 11
337.39301
 21
225.995902
 31
0.0
  0
LINE
  5
7E
100
AcDbEntity
  8
14
370
    30
  6
Continuous
 62
     7
100
AcDbLine
 10
337.39301
 20
225.995902
 30
0.0
 11
340.39301
 21
225.995902
 31
0.0
  0
LINE
  5
7F
100
AcDbEntity
  8
14
370
    30
  6
Continuous
 62
     7
100
AcDbLine
 10
337.39301
 20
244.495902
 30
0.0
 11
340.39301
 21
244.495902
 31
0.0
  0
LINE
  5
80
100
AcDbEntity
  8
14
370
    30
  6
Continuous
 62
     7
100
AcDbLine
 10
340.39301
 20
246.100087
 30
0.0
 11
340.39301
 21
224.391718
 31
0.0
  0
LINE
  5
81
100
AcDbEntity
  8
14
370
    30
  6
Continuous
 62
     7
100
AcDbLine
 10
340.39301
 20
224.391718
 30
0.0
 11
352.39301
 21
224.391718
 31
0.0
  0
LINE
  5
82
100
AcDbEntity
  8
14
370
    30
  6
Continuous
 62
     7
100
AcDbLine
 10
352.39301
 20
224.391718
 30
0.0
 11
352.39301
 21
246.100087
 31
0.0
  0
LINE
  5
83
100
AcDbEntity
  8
14
370
    30
  6
Continuous
 62
     7
100
AcDbLine
 10
352.39301
 20
246.100087
 30
0.0
 11
340.39301
 21
246.100087
 31
0.0
  0
LINE
  5
84
100
AcDbEntity
  8
14
370
    30
  6
Continuous
 62
     7
100
AcDbLine
 10
340.39301
 20
240.672994
 30
0.0
 11
352.39301
 21
240.672994
 31
0.0
  0
LINE
  5
85
100
AcDbEntity
  8
14
370
    30
  6
Continuous
 62
     7
100
AcDbLine
 10
340.39301
 20
229.81881
 30
0.0
 11
352.39301
 21
229.81881
 31
0.0
  0
LINE
  5
86
100
AcDbEntity
  8
14
370
    30
  6
Continuous
 62
     7
100
AcDbLine
 10
352.39301
 20
242.245902
 30
0.0
 11
355.39301
 21
242.245902
 31
0.0
  0
LINE
  5
87
100
AcDbEntity
  8
14
370
    30
  6
Continuous
 62
     7
100
AcDbLine
 10
352.39301
 20
228.245902
 30
0.0
 11
355.39301
 21
228.245902
 31
0.0
  0
LINE
  5
88
100
AcDbEntity
  8
14
370
    30
  6
Continuous
 62
     7
100
AcDbLine
 10
355.39301
 20
246.100087
 30
0.0
 11
355.39301
 21
224.391718
 31
0.0
  0
LINE
  5
89
100
AcDbEntity
  8
14
370
    30
  6
Continuous
 62
     7
100
AcDbLine
 10
355.39301
 20
246.100087
 30
0.0
 11
363.39301
 21
246.100087
 31
0.0
  0
LINE
  5
8A
100
AcDbEntity
  8
14
370
    30
  6
Continuous
 62
     7
100
AcDbLine
 10
363.39301
 20
246.100087
 30
0.0
 11
363.39301
 21
224.391718
 31
0.0
  0
LINE
  5
8B
100
AcDbEntity
  8
14
370
    30
  6
Continuous
 62
     7
100
AcDbLine
 10
363.39301
 20
224.391718
 30
0.0
 11
355.39301
 21
224.391718
 31
0.0
  0
LINE
  5
8C
100
AcDbEntity
  8
14
370
    30
  6
Continuous
 62
     7
100
AcDbLine
 10
355.39301
 20
229.81881
 30
0.0
 11
363.39301
 21
229.81881
 31
0.0
  0
LINE
  5
8D
100
AcDbEntity
  8
14
370
    30
  6
Continuous
 62
     7
100
AcDbLine
 10
355.39301
 20
240.672994
 30
0.0
 11
363.39301
 21
240.672994
 31
0.0
  0
LINE
  5
8E
100
AcDbEntity
  8
14
370
    30
  6
Continuous
 62
     7
100
AcDbLine
 10
363.39301
 20
241.945902
 30
0.0
 11
377.39301
 21
241.445902
 31
0.0
  0
LINE
  5
8F
100
AcDbEntity
  8
14
370
    30
  6
Continuous
 62
     7
100
AcDbLine
 10
363.39301
 20
228.545902
 30
0.0
 11
377.39301
 21
229.045902
 31
0.0
  0
LINE
  5
90
100
AcDbEntity
  8
14
370
    30
  6
Continuous
 62
     7
100
AcDbLine
 10
377.39301
 20
241.445902
 30
0.0
 11
377.39301
 21
229.045902
 31
0.0
  0
LINE
  5
91
100
AcDbEntity
  8
14
370
    30
  6
Continuous
 62
     7
100
AcDbLine
 10
270.39301
 20
240.245902
 30
0.0
 11
270.39301
 21
230.245902
 31
0.0
  0
LINE
  5
92
100
AcDbEntity
  8
14
370
    30
  6
Continuous
 62
     7
100
AcDbLine
 10
270.39301
 20
230.245902
 30
0.0
 11
337.39301
 21
230.245902
 31
0.0
  0
LINE
  5
93
100
AcDbEntity
  8
14
370
    30
  6
Continuous
 62
     7
100
AcDbLine
 10
337.39301
 20
240.245902
 30
0.0
 11
270.39301
 21
240.245902
 31
0.0
  0
LINE
  5
94
100
AcDbEntity
  8
14
370
     9
  6
CENTER
 62
     1
100
AcDbLine
 10
370.39301
 20
237.723058
 30
0.0
 11
370.39301
 21
232.285056
 31
0.0
  0
LINE
  5
95
100
AcDbEntity
  8
14
370
     9
  6
CENTER
 62
     1
100
AcDbLine
 10
383.656796
 20
235.245902
 30
0.0
 11
262.112688
 21
235.245902
 31
0.0
  0
ENDBLK
  5
96
100
AcDbEntity
  8
0
100
AcDbBlockEnd
  0
BLOCK
  5
99
100
AcDbEntity
  8
0
370
     9
  6
Continuous
 62
     7
100
AcDbBlockBegin
  2
*G5
 70
     0
 10
0.0
 20
0.0
 30
0.0
  3
*G5
  1

  0
INSERT
  5
9D
100
AcDbEntity
  8
0
370
     9
  6
Continuous
 62
     7
100
AcDbBlockReference
  2
*G6
 10
0.0
 20
0.0
 30
0.0
  0
TEXT
  5
9E
100
AcDbEntity
  8
16
370
     9
  6
Continuous
 62
   174
100
AcDbText
 10
316.011327
 20
24.127165
 30
0.0
 40
4.0
  1
1/1
 41
0.75
 11
316.011327
 21
24.127165
 31
0.0
100
AcDbText
 73
     1
  0
TEXT
  5
9F
100
AcDbEntity
  8
16
370
     9
  6
Continuous
 62
   174
100
AcDbText
 10
263.753231
 20
38.317491
 30
0.0
 40
3.5
  1
0.2
 41
0.989011
 11
263.753231
 21
38.317491
 31
0.0
100
AcDbText
 73
     1
  0
TEXT
  5
A0
100
AcDbEntity
  8
16
370
     9
  6
Continuous
 62
   174
100
AcDbText
 10
263.753231
 20
33.317491
 30
0.0
 40
3.5
  1
0.3
 50
0.3
 41
0.989011
 11
263.753231
 21
33.317491
 31
0.0
100
AcDbText
 73
     1
  0
TEXT
  5
A1
100
AcDbEntity
  8
16
370
     9
  6
Continuous
 62
   174
100
AcDbText
 10
228.548617
 20
8.214286
 30
0.0
 40
3.0
  1
1
 41
0.5
 11
228.548617
 21
8.214286
 31
0.0
100
AcDbText
 73
     1
  0
TEXT
  5
A2
100
AcDbEntity
  8
16
370
     9
  6
Continuous
 62
   174
100
AcDbText
 10
234.142107
 20
8.214286
 30
0.0
 40
3.0
  1
1
 41
0.5
 11
234.142107
 21
8.214286
 31
0.0
100
AcDbText
 73
     1
  0
INSERT
  5
A9
100
AcDbEntity
  8
0
370
     9
  6
Continuous
 62
   134
100
AcDbBlockReference
  2
*G7
 10
0.0
 20
0.0
 30
0.0
  0
TEXT
  5
AA
100
AcDbEntity
  8
15
370
     9
  6
Continuous
 62
   134
100
AcDbText
 10
230.677392
 20
8.214286
 30
0.0
 40
3.0
  1
×
 41
0.833333
 11
230.677392
 21
8.214286
 31
0.0
100
AcDbText
 73
     1
  0
INSERT
  5
EA
100
AcDbEntity
  8
0
370
     9
  6
Continuous
 62
     7
100
AcDbBlockReference
  2
*G8
 10
0.0
 20
0.0
 30
0.0
  0
TEXT
  5
EB
100
AcDbEntity
  8
16
370
     9
  6
Continuous
 62
   174
100
AcDbText
 10
229.770836
 20
48.710495
 30
0.0
 40
4.0
  1
S0000
 41
0.625
 11
229.770836
 21
48.710495
 31
0.0
100
AcDbText
 73
     1
  0
TEXT
  5
EC
100
AcDbEntity
  8
16
370
     9
  6
Continuous
 62
   174
100
AcDbText
 10
280.747879
 20
48.710495
 30
0.0
 40
4.0
  1
MATERIAL
 41
0.625
 11
280.747879
 21
48.710495
 31
0.0
100
AcDbText
 73
     1
  0
TEXT
  5
ED
100
AcDbEntity
  8
16
370
     9
  6
Continuous
 62
   174
100
AcDbText
 10
314.847354
 20
48.710495
 30
0.0
 40
4.0
  1
MATERIAL
 41
0.625
 11
314.847354
 21
48.710495
 31
0.0
100
AcDbText
 73
     1
  0
TEXT
  5
EE
100
AcDbEntity
  8
16
370
     9
  6
Continuous
 62
   174
100
AcDbText
 10
349.732134
 20
48.710495
 30
0.0
 40
4.0
  1
FINISH
 41
0.625
 11
349.732134
 21
48.710495
 31
0.0
100
AcDbText
 73
     1
  0
TEXT
  5
EF
100
AcDbEntity
  8
16
370
     9
  6
Continuous
 62
   174
100
AcDbText
 10
390.99863
 20
48.710495
 30
0.0
 40
4.0
  1
1
 41
0.625
 11
390.99863
 21
48.710495
 31
0.0
100
AcDbText
 73
     1
  0
TEXT
  5
F0
100
AcDbEntity
  8
16
370
     9
  6
Continuous
 62
   174
100
AcDbText
 10
251.102845
 20
48.710495
 30
0.0
 40
4.0
  1
ノズル寸法図
 41
0.833333
 11
251.102845
 21
48.710495
 31
0.0
100
AcDbText
 73
     1
  0
ENDBLK
  5
F1
100
AcDbEntity
  8
0
100
AcDbBlockEnd
  0
BLOCK
  5
9B
100
AcDbEntity
  8
0
370
     9
  6
Continuous
 62
     7
100
AcDbBlockBegin
  2
*G6
 70
     0
 10
0.0
 20
0.0
 30
0.0
  3
*G6
  1

  0
ENDBLK
  5
9C
100
AcDbEntity
  8
0
100
AcDbBlockEnd
  0
BLOCK
  5
A4
100
AcDbEntity
  8
0
370
     9
  6
Continuous
 62
   134
100
AcDbBlockBegin
  2
*G7
 70
     0
 10
0.0
 20
0.0
 30
0.0
  3
*G7
  1

  0
LINE
  5
A5
100
AcDbEntity
  8
15
370
     9
  6
Continuous
 62
   134
100
AcDbLine
 10
229.5
 20
12.214286
 30
0.0
 11
231.5
 21
8.214286
 31
0.0
  0
LINE
  5
A6
100
AcDbEntity
  8
15
370
     9
  6
Continuous
 62
   134
100
AcDbLine
 10
227.5
 20
8.214286
 30
0.0
 11
231.5
 21
8.214286
 31
0.0
  0
LINE
  5
A7
100
AcDbEntity
  8
15
370
     9
  6
Continuous
 62
   134
100
AcDbLine
 10
229.5
 20
12.214286
 30
0.0
 11
227.5
 21
8.214286
 31
0.0
  0
ENDBLK
  5
A8
100
AcDbEntity
  8
0
100
AcDbBlockEnd
  0
BLOCK
  5
AC
100
AcDbEntity
  8
0
370
     9
  6
Continuous
 62
     7
100
AcDbBlockBegin
  2
*G8
 70
     0
 10
0.0
 20
0.0
 30
0.0
  3
*G8
  1

  0
LINE
  5
AD
100
AcDbEntity
  8
15
370
    50
  6
Continuous
 62
   134
100
AcDbLine
 10
15.0
 20
2.714286
 30
0.0
 11
15.0
 21
284.891821
 31
0.0
  0
LINE
  5
AE
100
AcDbEntity
  8
15
370
    50
  6
Continuous
 62
   134
100
AcDbLine
 10
278.999999
 20
2.714286
 30
0.0
 11
278.999999
 21
42.714285
 31
0.0
  0
LINE
  5
AF
100
AcDbEntity
  8
15
370
    50
  6
Continuous
 62
   134
100
AcDbLine
 10
329.999998
 20
32.714285
 30
0.0
 11
329.999998
 21
2.714286
 31
0.0
  0
CIRCLE
  5
B0
100
AcDbEntity
  8
15
370
    50
  6
Continuous
 62
   134
100
AcDbCircle
 10
283.999999
 20
27.714285
 30
0.0
 40
1.5
  0
CIRCLE
  5
B1
100
AcDbEntity
  8
15
370
    50
  6
Continuous
 62
   134
100
AcDbCircle
 10
283.999999
 20
27.714285
 30
0.0
 40
2.5
  0
LINE
  5
B2
100
AcDbEntity
  8
15
370
    50
  6
Continuous
 62
   134
100
AcDbLine
 10
288.499999
 20
29.214285
 30
0.0
 11
288.499999
 21
26.214285
 31
0.0
  0
LINE
  5
B3
100
AcDbEntity
  8
15
370
    50
  6
Continuous
 62
   134
100
AcDbLine
 10
293.999999
 20
30.214285
 30
0.0
 11
293.999999
 21
25.214285
 31
0.0
  0
LINE
  5
B4
100
AcDbEntity
  8
15
370
    50
  6
Continuous
 62
   134
100
AcDbLine
 10
288.499999
 20
29.214285
 30
0.0
 11
293.999999
 21
30.214285
 31
0.0
  0
LINE
  5
B5
100
AcDbEntity
  8
15
370
    50
  6
Continuous
 62
   134
100
AcDbLine
 10
288.499999
 20
26.214285
 30
0.0
 11
293.999999
 21
25.214285
 31
0.0
  0
LINE
  5
B6
100
AcDbEntity
  8
15
370
     9
  6
Continuous
 62
   134
100
AcDbLine
 10
278.999999
 20
37.714285
 30
0.0
 11
227.0
 21
37.714285
 31
0.0
  0
LINE
  5
B7
100
AcDbEntity
  8
15
370
     9
  6
Continuous
 62
   134
100
AcDbLine
 10
278.999999
 20
27.714285
 30
0.0
 11
227.0
 21
27.714285
 31
0.0
  0
LINE
  5
B8
100
AcDbEntity
  8
15
370
     9
  6
Continuous
 62
   134
100
AcDbLine
 10
227.0
 20
22.714285
 30
0.0
 11
278.999999
 21
22.714285
 31
0.0
  0
LINE
  5
B9
100
AcDbEntity
  8
15
370
     9
  6
Continuous
 62
   134
100
AcDbLine
 10
278.999999
 20
17.714285
 30
0.0
 11
227.0
 21
17.714285
 31
0.0
  0
LINE
  5
BA
100
AcDbEntity
  8
15
370
     9
  6
Continuous
 62
   134
100
AcDbLine
 10
227.0
 20
12.714285
 30
0.0
 11
278.999999
 21
12.714285
 31
0.0
  0
LINE
  5
BB
100
AcDbEntity
  8
15
370
     9
  6
Continuous
 62
   134
100
AcDbLine
 10
278.999999
 20
7.714286
 30
0.0
 11
227.0
 21
7.714286
 31
0.0
  0
LINE
  5
BC
100
AcDbEntity
  8
15
370
     9
  6
Continuous
 62
   134
100
AcDbLine
 10
312.999998
 20
2.714286
 30
0.0
 11
312.999998
 21
32.714285
 31
0.0
  0
LINE
  5
BD
100
AcDbEntity
  8
15
370
     9
  6
Continuous
 62
   134
100
AcDbLine
 10
295.999999
 20
2.714286
 30
0.0
 11
295.999999
 21
32.714285
 31
0.0
  0
LINE
  5
BE
100
AcDbEntity
  8
15
370
     9
  6
Continuous
 62
   134
100
AcDbLine
 10
279.999999
 20
27.714285
 30
0.0
 11
294.999999
 21
27.714285
 31
0.0
  0
LINE
  5
BF
100
AcDbEntity
  8
15
370
     9
  6
Continuous
 62
   134
100
AcDbLine
 10
283.999999
 20
31.714285
 30
0.0
 11
283.999999
 21
23.714285
 31
0.0
  0
TEXT
  5
C0
100
AcDbEntity
  8
15
370
     9
  6
Continuous
 62
   134
100
AcDbText
 10
296.999999
 20
29.714285
 30
0.0
 40
2.499
  1
UNIT
 41
0.79992
 11
296.999999
 21
29.714285
 31
0.0
100
AcDbText
 73
     1
  0
TEXT
  5
C1
100
AcDbEntity
  8
15
370
     9
  6
Continuous
 62
   134
100
AcDbText
 10
313.999998
 20
29.714285
 30
0.0
 40
2.499
  1
SCALE
 41
0.79992
 11
313.999998
 21
29.714285
 31
0.0
100
AcDbText
 73
     1
  0
TEXT
  5
C2
100
AcDbEntity
  8
15
370
     9
  6
Continuous
 62
   134
100
AcDbText
 10
330.974741
 20
19.335436
 30
0.0
 40
2.999
  1
TITLE
 41
0.666556
 11
330.974741
 21
19.335436
 31
0.0
100
AcDbText
 73
     1
  0
TEXT
  5
C3
100
AcDbEntity
  8
15
370
     9
  6
Continuous
 62
   134
100
AcDbText
 10
313.999998
 20
19.360693
 30
0.0
 40
2.999
  1
DSGD.
 41
0.724517
 11
313.999998
 21
19.360693
 31
0.0
100
AcDbText
 73
     1
  0
TEXT
  5
C4
100
AcDbEntity
  8
15
370
     9
  6
Continuous
 62
   134
100
AcDbText
 10
296.974742
 20
19.360693
 30
0.0
 40
2.999
  1
CHKD.
 41
0.724517
 11
296.974742
 21
19.360693
 31
0.0
100
AcDbText
 73
     1
  0
TEXT
  5
C5
100
AcDbEntity
  8
15
370
     9
  6
Continuous
 62
   134
100
AcDbText
 10
279.949486
 20
19.360693
 30
0.0
 40
2.999
  1
APPD.
 41
0.724517
 11
279.949486
 21
19.360693
 31
0.0
100
AcDbText
 73
     1
  0
TEXT
  5
C6
100
AcDbEntity
  8
15
370
     9
  6
Continuous
 62
   134
100
AcDbText
 10
270.999999
 20
3.714286
 30
0.0
 40
2.499
  1
DSGD.
 41
0.652
 11
270.999999
 21
3.714286
 31
0.0
100
AcDbText
 73
     1
  0
TEXT
  5
C7
100
AcDbEntity
  8
15
370
     9
  6
Continuous
 62
   134
100
AcDbText
 10
260.999999
 20
3.714286
 30
0.0
 40
2.499
  1
CHKD.
 41
0.652
 11
260.999999
 21
3.714286
 31
0.0
100
AcDbText
 73
     1
  0
TEXT
  5
C8
100
AcDbEntity
  8
15
370
     9
  6
Continuous
 62
   134
100
AcDbText
 10
251.0
 20
3.714286
 30
0.0
 40
2.499
  1
APPD.
 41
0.652
 11
251.0
 21
3.714286
 31
0.0
100
AcDbText
 73
     1
  0
TEXT
  5
C9
100
AcDbEntity
  8
15
370
     9
  6
Continuous
 62
   134
100
AcDbText
 10
240.0
 20
3.714286
 30
0.0
 40
2.499
  1
DATE
 41
0.59984
 11
240.0
 21
3.714286
 31
0.0
100
AcDbText
 73
     1
  0
TEXT
  5
CA
100
AcDbEntity
  8
15
370
     9
  6
Continuous
 62
   134
100
AcDbText
 10
229.0
 20
3.714286
 30
0.0
 40
2.499
  1
SYMB.
 41
0.652
 11
229.0
 21
3.714286
 31
0.0
100
AcDbText
 73
     1
  0
LINE
  5
CB
100
AcDbEntity
  8
15
370
     9
  6
Continuous
 62
   134
100
AcDbLine
 10
237.0
 20
32.714285
 30
0.0
 11
237.0
 21
2.714286
 31
0.0
  0
LINE
  5
CC
100
AcDbEntity
  8
15
370
     9
  6
Continuous
 62
   134
100
AcDbLine
 10
249.0
 20
2.714286
 30
0.0
 11
249.0
 21
32.714285
 31
0.0
  0
LINE
  5
CD
100
AcDbEntity
  8
15
370
     9
  6
Continuous
 62
   134
100
AcDbLine
 10
258.999999
 20
32.714285
 30
0.0
 11
258.999999
 21
2.714286
 31
0.0
  0
LINE
  5
CE
100
AcDbEntity
  8
15
370
     9
  6
Continuous
 62
   134
100
AcDbLine
 10
268.999999
 20
2.714286
 30
0.0
 11
268.999999
 21
32.714285
 31
0.0
  0
TEXT
  5
CF
100
AcDbEntity
  8
15
370
     9
  6
Continuous
 62
   134
100
AcDbText
 10
296.333112
 20
33.860105
 30
0.0
 40
7.0
  1
HIMU ELECTRO CO.,LTD
 41
0.621118
 11
296.333112
 21
33.860105
 31
0.0
100
AcDbText
 73
     1
  0
LINE
  5
D0
100
AcDbEntity
  8
15
370
     9
  6
Continuous
 62
   134
100
AcDbLine
 10
249.0
 20
54.714285
 30
0.0
 11
249.0
 21
42.714285
 31
0.0
  0
LINE
  5
D1
100
AcDbEntity
  8
15
370
     9
  6
Continuous
 62
   134
100
AcDbLine
 10
278.999999
 20
54.714285
 30
0.0
 11
278.999999
 21
42.714285
 31
0.0
  0
TEXT
  5
D2
100
AcDbEntity
  8
15
370
     9
  6
Continuous
 62
   134
100
AcDbText
 10
230.72063
 20
43.714285
 30
0.0
 40
2.999
  1
PART NO
 41
0.706953
 11
230.72063
 21
43.714285
 31
0.0
100
AcDbText
 73
     1
  0
TEXT
  5
D3
100
AcDbEntity
  8
15
370
     9
  6
Continuous
 62
   134
100
AcDbText
 10
258.689986
 20
43.714285
 30
0.0
 40
3.0
  1
NAME
 41
0.833333
 11
258.689986
 21
43.714285
 31
0.0
100
AcDbText
 73
     1
  0
LINE
  5
D4
100
AcDbEntity
  8
15
370
     9
  6
Continuous
 62
   134
100
AcDbLine
 10
312.999998
 20
54.714285
 30
0.0
 11
312.999998
 21
42.714285
 31
0.0
  0
TEXT
  5
D5
100
AcDbEntity
  8
15
370
     9
  6
Continuous
 62
   134
100
AcDbText
 10
287.462037
 20
43.714285
 30
0.0
 40
2.999
  1
MATERIAL
 41
0.666556
 11
287.462037
 21
43.714285
 31
0.0
100
AcDbText
 73
     1
  0
TEXT
  5
D6
100
AcDbEntity
  8
15
370
     9
  6
Continuous
 62
   134
100
AcDbText
 10
322.756736
 20
43.714285
 30
0.0
 40
2.999
  1
SPEC
 41
0.666556
 11
322.756736
 21
43.714285
 31
0.0
100
AcDbText
 73
     1
  0
TEXT
  5
D7
100
AcDbEntity
  8
15
370
     9
  6
Continuous
 62
   134
100
AcDbText
 10
331.005781
 20
9.448278
 30
0.0
 40
2.999
  1
DOCUMENT NO.
 41
0.714167
 11
331.005781
 21
9.448278
 31
0.0
100
AcDbText
 73
     1
  0
TEXT
  5
D8
100
AcDbEntity
  8
15
370
     9
  6
Continuous
 62
   134
100
AcDbText
 10
298.777737
 20
23.898089
 30
0.0
 40
5.0
  1
mm
 11
298.777737
 21
23.898089
 31
0.0
100
AcDbText
 73
     1
  0
TEXT
  5
D9
100
AcDbEntity
  8
15
370
     9
  6
Continuous
 62
   134
100
AcDbText
 10
227.0
 20
33.317491
 30
0.0
 40
3.5
  1
指示なき　　角：Ｃ
 41
0.952381
 11
227.0
 21
33.317491
 31
0.0
100
AcDbText
 73
     1
  0
TEXT
  5
DA
100
AcDbEntity
  8
15
370
     9
  6
Continuous
 62
   134
100
AcDbText
 10
227.0
 20
38.317491
 30
0.0
 40
3.5
  1
指示なき　公差：%%p
 41
0.97035
 11
227.0
 21
38.317491
 31
0.0
100
AcDbText
 73
     1
  0
LINE
  5
DB
100
AcDbEntity
  8
15
370
    50
  6
Continuous
 62
   134
100
AcDbLine
 10
278.999999
 20
22.714285
 30
0.0
 11
407.0
 21
22.714285
 31
0.0
  0
LINE
  5
DC
100
AcDbEntity
  8
15
370
    50
  6
Continuous
 62
   134
100
AcDbLine
 10
407.0
 20
42.714285
 30
0.0
 11
227.0
 21
42.714285
 31
0.0
  0
LINE
  5
DD
100
AcDbEntity
  8
15
370
     9
  6
Continuous
 62
   134
100
AcDbLine
 10
407.0
 20
47.714285
 30
0.0
 11
227.0
 21
47.714285
 31
0.0
  0
LINE
  5
DE
100
AcDbEntity
  8
15
370
     9
  6
Continuous
 62
   134
100
AcDbLine
 10
407.0
 20
12.714285
 30
0.0
 11
329.999998
 21
12.714285
 31
0.0
  0
LINE
  5
DF
100
AcDbEntity
  8
15
370
     9
  6
Continuous
 62
   134
100
AcDbLine
 10
227.0
 20
54.714285
 30
0.0
 11
407.0
 21
54.714285
 31
0.0
  0
LINE
  5
E0
100
AcDbEntity
  8
15
370
    50
  6
Continuous
 62
   134
100
AcDbLine
 10
407.0
 20
32.714285
 30
0.0
 11
227.0
 21
32.714285
 31
0.0
  0
TEXT
  5
E1
100
AcDbEntity
  8
15
370
     9
  6
Continuous
 62
   134
100
AcDbText
 10
388.600902
 20
43.714285
 30
0.0
 40
2.999
  1
QUANTITY
 41
0.666556
 11
388.600902
 21
43.714285
 31
0.0
100
AcDbText
 73
     1
  0
LINE
  5
E2
100
AcDbEntity
  8
15
370
     9
  6
Continuous
 62
   134
100
AcDbLine
 10
387.0
 20
54.714285
 30
0.0
 11
387.0
 21
42.714285
 31
0.0
  0
LINE
  5
E3
100
AcDbEntity
  8
15
370
     9
  6
Continuous
 62
   134
100
AcDbLine
 10
346.999998
 20
54.714285
 30
0.0
 11
346.999998
 21
42.714285
 31
0.0
  0
TEXT
  5
E4
100
AcDbEntity
  8
15
370
     9
  6
Continuous
 62
   134
100
AcDbText
 10
361.232457
 20
43.714285
 30
0.0
 40
2.999
  1
FINISH
 41
0.666556
 11
361.232457
 21
43.714285
 31
0.0
100
AcDbText
 73
     1
  0
LINE
  5
E5
100
AcDbEntity
  8
15
370
     9
  6
Continuous
 62
   134
100
AcDbLine
 10
227.0
 20
2.714286
 30
0.0
 11
227.0
 21
54.714285
 31
0.0
  0
LINE
  5
E6
100
AcDbEntity
  8
15
370
    50
  6
Continuous
 62
   134
100
AcDbLine
 10
407.0
 20
2.714286
 30
0.0
 11
15.0
 21
2.714286
 31
0.0
  0
LINE
  5
E7
100
AcDbEntity
  8
15
370
    50
  6
Continuous
 62
   134
100
AcDbLine
 10
15.0
 20
284.891821
 30
0.0
 11
407.0
 21
284.891821
 31
0.0
  0
LINE
  5
E8
100
AcDbEntity
  8
15
370
    50
  6
Continuous
 62
   134
100
AcDbLine
 10
407.0
 20
284.891821
 30
0.0
 11
407.0
 21
2.714286
 31
0.0
  0
ENDBLK
  5
E9
100
AcDbEntity
  8
0
100
AcDbBlockEnd
  0
BLOCK
  5
F4
100
AcDbEntity
  8
16
370
     9
  6
Continuous
 62
   174
100
AcDbBlockBegin
  2
*D9
 70
     0
 10
0.0
 20
0.0
 30
0.0
  3
*D9
  1

  0
LINE
  5
F5
100
AcDbEntity
  8
16
370
     9
  6
Continuous
 62
   174
100
AcDbLine
 10
370.39301
 20
259.535519
 30
0.0
 11
337.39301
 21
259.535519
 31
0.0
  0
LINE
  5
F6
100
AcDbEntity
  8
16
370
     9
  6
Continuous
 62
   174
100
AcDbLine
 10
370.39301
 20
260.535519
 30
0.0
 11
370.39301
 21
239.723058
 31
0.0
  0
LINE
  5
F7
100
AcDbEntity
  8
16
370
     9
  6
Continuous
 62
   174
100
AcDbLine
 10
337.39301
 20
260.535519
 30
0.0
 11
337.39301
 21
246.495902
 31
0.0
  0
LINE
  5
F8
100
AcDbEntity
  8
16
370
     9
  6
Continuous
 62
   174
100
AcDbLine
 10
370.39301
 20
259.535519
 30
0.0
 11
367.495233
 21
258.759062
 31
0.0
  0
LINE
  5
F9
100
AcDbEntity
  8
16
370
     9
  6
Continuous
 62
   174
100
AcDbLine
 10
370.39301
 20
259.535519
 30
0.0
 11
367.495233
 21
260.311976
 31
0.0
  0
LINE
  5
FA
100
AcDbEntity
  8
16
370
     9
  6
Continuous
 62
   174
100
AcDbLine
 10
337.39301
 20
259.535519
 30
0.0
 11
340.290788
 21
260.311976
 31
0.0
  0
LINE
  5
FB
100
AcDbEntity
  8
16
370
     9
  6
Continuous
 62
   174
100
AcDbLine
 10
337.39301
 20
259.535519
 30
0.0
 11
340.290788
 21
258.759062
 31
0.0
  0
TEXT
  5
FC
100
AcDbEntity
  8
16
370
     9
  6
Continuous
 62
   174
100
AcDbText
 10
348.89301
 20
259.535519
 30
0.0
 40
5.0
  1
(33)
 41
0.5
 11
348.89301
 21
259.535519
 31
0.0
100
AcDbText
 73
     1
  0
ENDBLK
  5
FD
100
AcDbEntity
  8
16
370
     9
  6
Continuous
 62
   174
100
AcDbBlockEnd
  0
BLOCK
  5
100
100
AcDbEntity
  8
16
370
     9
  6
Continuous
 62
   174
100
AcDbBlockBegin
  2
*D10
 70
     0
 10
0.0
 20
0.0
 30
0.0
  3
*D10
  1

  0
LINE
  5
101
100
AcDbEntity
  8
16
370
     9
  6
Continuous
 62
   174
100
AcDbLine
 10
337.39301
 20
259.535519
 30
0.0
 11
270.39301
 21
259.535519
 31
0.0
  0
LINE
  5
102
100
AcDbEntity
  8
16
370
     9
  6
Continuous
 62
   174
100
AcDbLine
 10
337.39301
 20
260.535519
 30
0.0
 11
337.39301
 21
246.495902
 31
0.0
  0
LINE
  5
103
100
AcDbEntity
  8
16
370
     9
  6
Continuous
 62
   174
100
AcDbLine
 10
270.39301
 20
260.535519
 30
0.0
 11
270.39301
 21
242.245902
 31
0.0
  0
LINE
  5
104
100
AcDbEntity
  8
16
370
     9
  6
Continuous
 62
   174
100
AcDbLine
 10
337.39301
 20
259.535519
 30
0.0
 11
334.495233
 21
258.759062
 31
0.0
  0
LINE
  5
105
100
AcDbEntity
  8
16
370
     9
  6
Continuous
 62
   174
100
AcDbLine
 10
337.39301
 20
259.535519
 30
0.0
 11
334.495233
 21
260.311976
 31
0.0
  0
LINE
  5
106
100
AcDbEntity
  8
16
370
     9
  6
Continuous
 62
   174
100
AcDbLine
 10
270.39301
 20
259.535519
 30
0.0
 11
273.290788
 21
260.311976
 31
0.0
  0
LINE
  5
107
100
AcDbEntity
  8
16
370
     9
  6
Continuous
 62
   174
100
AcDbLine
 10
270.39301
 20
259.535519
 30
0.0
 11
273.290788
 21
258.759062
 31
0.0
  0
TEXT
  5
108
100
AcDbEntity
  8
16
370
     9
  6
Continuous
 62
   174
100
AcDbText
 10
292.64301
 20
259.535519
 30
0.0
 40
5.0
  1
呼び寸 mm
 41
0.725806
 11
292.64301
 21
259.535519
 31
0.0
100
AcDbText
 73
     1
  0
ENDBLK
  5
109
100
AcDbEntity
  8
16
370
     9
  6
Continuous
 62
   174
100
AcDbBlockEnd
  0
BLOCK
  5
10C
100
AcDbEntity
  8
16
370
     9
  6
Continuous
 62
   174
100
AcDbBlockBegin
  2
*D11
 70
     0
 10
0.0
 20
0.0
 30
0.0
  3
*D11
  1

  0
LINE
  5
10D
100
AcDbEntity
  8
16
370
     9
  6
Continuous
 62
   174
100
AcDbLine
 10
227.088779
 20
259.535519
 30
0.0
 11
245.888779
 21
259.535519
 31
0.0
  0
LINE
  5
10E
100
AcDbEntity
  8
16
370
     9
  6
Continuous
 62
   174
100
AcDbLine
 10
227.088779
 20
260.535519
 30
0.0
 11
227.088779
 21
242.672994
 31
0.0
  0
LINE
  5
10F
100
AcDbEntity
  8
16
370
     9
  6
Continuous
 62
   174
100
AcDbLine
 10
245.888779
 20
260.535519
 30
0.0
 11
245.888779
 21
242.672994
 31
0.0
  0
LINE
  5
110
100
AcDbEntity
  8
16
370
     9
  6
Continuous
 62
   174
100
AcDbLine
 10
227.088779
 20
259.535519
 30
0.0
 11
229.986557
 21
260.311976
 31
0.0
  0
LINE
  5
111
100
AcDbEntity
  8
16
370
     9
  6
Continuous
 62
   174
100
AcDbLine
 10
227.088779
 20
259.535519
 30
0.0
 11
229.986557
 21
258.759062
 31
0.0
  0
LINE
  5
112
100
AcDbEntity
  8
16
370
     9
  6
Continuous
 62
   174
100
AcDbLine
 10
245.888779
 20
259.535519
 30
0.0
 11
242.991002
 21
258.759062
 31
0.0
  0
LINE
  5
113
100
AcDbEntity
  8
16
370
     9
  6
Continuous
 62
   174
100
AcDbLine
 10
245.888779
 20
259.535519
 30
0.0
 11
242.991002
 21
260.311976
 31
0.0
  0
TEXT
  5
114
100
AcDbEntity
  8
16
370
     9
  6
Continuous
 62
   174
100
AcDbText
 10
233.988779
 20
259.535519
 30
0.0
 40
5.0
  1
19
 41
0.5
 11
233.988779
 21
259.535519
 31
0.0
100
AcDbText
 73
     1
  0
ENDBLK
  5
115
100
AcDbEntity
  8
16
370
     9
  6
Continuous
 62
   174
100
AcDbBlockEnd
  0
BLOCK
  5
118
100
AcDbEntity
  8
16
370
     9
  6
Continuous
 62
   174
100
AcDbBlockBegin
  2
*D12
 70
     0
 10
0.0
 20
0.0
 30
0.0
  3
*D12
  1

  0
LINE
  5
119
100
AcDbEntity
  8
16
370
     9
  6
Continuous
 62
   174
100
AcDbLine
 10
41.784411
 20
257.04918
 30
0.0
 11
55.984413
 21
257.04918
 31
0.0
  0
LINE
  5
11A
100
AcDbEntity
  8
16
370
     9
  6
Continuous
 62
   174
100
AcDbLine
 10
41.784411
 20
258.04918
 30
0.0
 11
41.784411
 21
242.875144
 31
0.0
  0
LINE
  5
11B
100
AcDbEntity
  8
16
370
     9
  6
Continuous
 62
   174
100
AcDbLine
 10
55.984413
 20
258.04918
 30
0.0
 11
55.984413
 21
242.875144
 31
0.0
  0
LINE
  5
11C
100
AcDbEntity
  8
16
370
     9
  6
Continuous
 62
   174
100
AcDbLine
 10
41.784411
 20
257.04918
 30
0.0
 11
44.682188
 21
257.825637
 31
0.0
  0
LINE
  5
11D
100
AcDbEntity
  8
16
370
     9
  6
Continuous
 62
   174
100
AcDbLine
 10
41.784411
 20
257.04918
 30
0.0
 11
44.682188
 21
256.272723
 31
0.0
  0
LINE
  5
11E
100
AcDbEntity
  8
16
370
     9
  6
Continuous
 62
   174
100
AcDbLine
 10
55.984413
 20
257.04918
 30
0.0
 11
53.086635
 21
256.272723
 31
0.0
  0
LINE
  5
11F
100
AcDbEntity
  8
16
370
     9
  6
Continuous
 62
   174
100
AcDbLine
 10
55.984413
 20
257.04918
 30
0.0
 11
53.086635
 21
257.825637
 31
0.0
  0
TEXT
  5
120
100
AcDbEntity
  8
16
370
     9
  6
Continuous
 62
   174
100
AcDbText
 10
46.384412
 20
257.04918
 30
0.0
 40
5.0
  1
14
 41
0.5
 11
46.384412
 21
257.04918
 31
0.0
100
AcDbText
 73
     1
  0
ENDBLK
  5
121
100
AcDbEntity
  8
16
370
     9
  6
Continuous
 62
   174
100
AcDbBlockEnd
  0
BLOCK
  5
124
100
AcDbEntity
  8
16
370
     9
  6
Continuous
 62
   174
100
AcDbBlockBegin
  2
*D13
 70
     0
 10
0.0
 20
0.0
 30
0.0
  3
*D13
  1

  0
LINE
  5
125
100
AcDbEntity
  8
16
370
     9
  6
Continuous
 62
   174
100
AcDbLine
 10
177.442128
 20
260.491803
 30
0.0
 11
146.442128
 21
260.491803
 31
0.0
  0
LINE
  5
126
100
AcDbEntity
  8
16
370
     9
  6
Continuous
 62
   174
100
AcDbLine
 10
177.442128
 20
261.491803
 30
0.0
 11
177.442128
 21
241.253112
 31
0.0
  0
LINE
  5
127
100
AcDbEntity
  8
16
370
     9
  6
Continuous
 62
   174
100
AcDbLine
 10
146.442128
 20
261.491803
 30
0.0
 11
146.442128
 21
245.425956
 31
0.0
  0
LINE
  5
128
100
AcDbEntity
  8
16
370
     9
  6
Continuous
 62
   174
100
AcDbLine
 10
177.442128
 20
260.491803
 30
0.0
 11
174.54435
 21
259.715346
 31
0.0
  0
LINE
  5
129
100
AcDbEntity
  8
16
370
     9
  6
Continuous
 62
   174
100
AcDbLine
 10
177.442128
 20
260.491803
 30
0.0
 11
174.54435
 21
261.26826
 31
0.0
  0
LINE
  5
12A
100
AcDbEntity
  8
16
370
     9
  6
Continuous
 62
   174
100
AcDbLine
 10
146.442128
 20
260.491803
 30
0.0
 11
149.339905
 21
261.26826
 31
0.0
  0
LINE
  5
12B
100
AcDbEntity
  8
16
370
     9
  6
Continuous
 62
   174
100
AcDbLine
 10
146.442128
 20
260.491803
 30
0.0
 11
149.339905
 21
259.715346
 31
0.0
  0
TEXT
  5
12C
100
AcDbEntity
  8
16
370
     9
  6
Continuous
 62
   174
100
AcDbText
 10
156.942128
 20
260.491803
 30
0.0
 40
5.0
  1
(31)
 41
0.5
 11
156.942128
 21
260.491803
 31
0.0
100
AcDbText
 73
     1
  0
ENDBLK
  5
12D
100
AcDbEntity
  8
16
370
     9
  6
Continuous
 62
   174
100
AcDbBlockEnd
  0
BLOCK
  5
130
100
AcDbEntity
  8
16
370
     9
  6
Continuous
 62
   174
100
AcDbBlockBegin
  2
*D14
 70
     0
 10
0.0
 20
0.0
 30
0.0
  3
*D14
  1

  0
LINE
  5
131
100
AcDbEntity
  8
16
370
     9
  6
Continuous
 62
   174
100
AcDbLine
 10
146.442128
 20
260.491803
 30
0.0
 11
77.442128
 21
260.491803
 31
0.0
  0
LINE
  5
132
100
AcDbEntity
  8
16
370
     9
  6
Continuous
 62
   174
100
AcDbLine
 10
146.442128
 20
261.491803
 30
0.0
 11
146.442128
 21
245.425956
 31
0.0
  0
LINE
  5
133
100
AcDbEntity
  8
16
370
     9
  6
Continuous
 62
   174
100
AcDbLine
 10
77.442128
 20
261.491803
 30
0.0
 11
77.442128
 21
241.775956
 31
0.0
  0
LINE
  5
134
100
AcDbEntity
  8
16
370
     9
  6
Continuous
 62
   174
100
AcDbLine
 10
146.442128
 20
260.491803
 30
0.0
 11
143.54435
 21
259.715346
 31
0.0
  0
LINE
  5
135
100
AcDbEntity
  8
16
370
     9
  6
Continuous
 62
   174
100
AcDbLine
 10
146.442128
 20
260.491803
 30
0.0
 11
143.54435
 21
261.26826
 31
0.0
  0
LINE
  5
136
100
AcDbEntity
  8
16
370
     9
  6
Continuous
 62
   174
100
AcDbLine
 10
77.442128
 20
260.491803
 30
0.0
 11
80.339905
 21
261.26826
 31
0.0
  0
LINE
  5
137
100
AcDbEntity
  8
16
370
     9
  6
Continuous
 62
   174
100
AcDbLine
 10
77.442128
 20
260.491803
 30
0.0
 11
80.339905
 21
259.715346
 31
0.0
  0
TEXT
  5
138
100
AcDbEntity
  8
16
370
     9
  6
Continuous
 62
   174
100
AcDbText
 10
100.692128
 20
260.491803
 30
0.0
 40
5.0
  1
呼び寸 mm
 41
0.725806
 11
100.692128
 21
260.491803
 31
0.0
100
AcDbText
 73
     1
  0
ENDBLK
  5
139
100
AcDbEntity
  8
16
370
     9
  6
Continuous
 62
   174
100
AcDbBlockEnd
  0
BLOCK
  5
13C
100
AcDbEntity
  8
16
370
     9
  6
Continuous
 62
   174
100
AcDbBlockBegin
  2
*D15
 70
     0
 10
0.0
 20
0.0
 30
0.0
  3
*D15
  1

  0
LINE
  5
13D
100
AcDbEntity
  8
16
370
     9
  6
Continuous
 62
   174
100
AcDbLine
 10
102.513661
 20
247.775956
 30
0.0
 11
102.513661
 21
215.136612
 31
0.0
  0
LINE
  5
13E
100
AcDbEntity
  8
16
370
     9
  6
Continuous
 62
   174
100
AcDbLine
 10
102.513661
 20
239.775956
 30
0.0
 11
101.737204
 21
242.673734
 31
0.0
  0
LINE
  5
13F
100
AcDbEntity
  8
16
370
     9
  6
Continuous
 62
   174
100
AcDbLine
 10
102.513661
 20
239.775956
 30
0.0
 11
103.290118
 21
242.673734
 31
0.0
  0
LINE
  5
140
100
AcDbEntity
  8
16
370
     9
  6
Continuous
 62
   174
100
AcDbLine
 10
102.513661
 20
233.775956
 30
0.0
 11
103.290118
 21
230.878179
 31
0.0
  0
LINE
  5
141
100
AcDbEntity
  8
16
370
     9
  6
Continuous
 62
   174
100
AcDbLine
 10
102.513661
 20
233.775956
 30
0.0
 11
101.737204
 21
230.878179
 31
0.0
  0
TEXT
  5
142
100
AcDbEntity
  8
16
370
     9
  6
Continuous
 62
   174
100
AcDbText
 10
102.513661
 20
216.386612
 30
0.0
 40
5.0
  1
%%c6
 50
90.0
 41
0.75
 11
102.513661
 21
216.386612
 31
0.0
100
AcDbText
 73
     1
  0
ENDBLK
  5
143
100
AcDbEntity
  8
16
370
     9
  6
Continuous
 62
   174
100
AcDbBlockEnd
  0
BLOCK
  5
146
100
AcDbEntity
  8
16
370
     9
  6
Continuous
 62
   174
100
AcDbBlockBegin
  2
*D16
 70
     0
 10
0.0
 20
0.0
 30
0.0
  3
*D16
  1

  0
LINE
  5
147
100
AcDbEntity
  8
16
370
     9
  6
Continuous
 62
   174
100
AcDbLine
 10
306.202186
 20
248.245902
 30
0.0
 11
306.202186
 21
212.165301
 31
0.0
  0
LINE
  5
148
100
AcDbEntity
  8
16
370
     9
  6
Continuous
 62
   174
100
AcDbLine
 10
306.202186
 20
240.245902
 30
0.0
 11
305.425729
 21
243.143679
 31
0.0
  0
LINE
  5
149
100
AcDbEntity
  8
16
370
     9
  6
Continuous
 62
   174
100
AcDbLine
 10
306.202186
 20
240.245902
 30
0.0
 11
306.978643
 21
243.143679
 31
0.0
  0
LINE
  5
14A
100
AcDbEntity
  8
16
370
     9
  6
Continuous
 62
   174
100
AcDbLine
 10
306.202186
 20
230.245902
 30
0.0
 11
306.978643
 21
227.348124
 31
0.0
  0
LINE
  5
14B
100
AcDbEntity
  8
16
370
     9
  6
Continuous
 62
   174
100
AcDbLine
 10
306.202186
 20
230.245902
 30
0.0
 11
305.425729
 21
227.348124
 31
0.0
  0
TEXT
  5
14C
100
AcDbEntity
  8
16
370
     9
  6
Continuous
 62
   174
100
AcDbText
 10
306.202186
 20
213.415301
 30
0.0
 40
5.0
  1
%%c10
 50
90.0
 41
0.666667
 11
306.202186
 21
213.415301
 31
0.0
100
AcDbText
 73
     1
  0
ENDBLK
  5
14D
100
AcDbEntity
  8
16
370
     9
  6
Continuous
 62
   174
100
AcDbBlockEnd
  0
BLOCK
  5
172
100
AcDbEntity
  8
0
370
     9
  6
Continuous
 62
     7
100
AcDbBlockBegin
  2
*G17
 70
     0
 10
0.0
 20
0.0
 30
0.0
  3
*G17
  1

  0
LINE
  5
173
100
AcDbEntity
  8
14
370
    30
  6
Continuous
 62
     7
100
AcDbLine
 10
43.744425
 20
131.888554
 30
0.0
 11
36.144425
 21
131.888554
 31
0.0
  0
LINE
  5
174
100
AcDbEntity
  8
14
370
    30
  6
Continuous
 62
     7
100
AcDbLine
 10
36.144425
 20
131.888554
 30
0.0
 11
36.144425
 21
84.888554
 31
0.0
  0
LINE
  5
175
100
AcDbEntity
  8
14
370
    30
  6
Continuous
 62
     7
100
AcDbLine
 10
36.144425
 20
84.888554
 30
0.0
 11
43.744425
 21
84.888554
 31
0.0
  0
LINE
  5
176
100
AcDbEntity
  8
14
370
    30
  6
Continuous
 62
     7
100
AcDbLine
 10
43.744425
 20
84.888554
 30
0.0
 11
43.744425
 21
131.888554
 31
0.0
  0
LINE
  5
177
100
AcDbEntity
  8
14
370
    30
  6
Continuous
 62
     7
100
AcDbLine
 10
37.244425
 20
84.888554
 30
0.0
 11
37.244425
 21
131.888554
 31
0.0
  0
LINE
  5
178
100
AcDbEntity
  8
14
370
    30
  6
Continuous
 62
     7
100
AcDbLine
 10
43.744425
 20
86.888554
 30
0.0
 11
37.244425
 21
86.888554
 31
0.0
  0
LINE
  5
179
100
AcDbEntity
  8
14
370
    30
  6
Continuous
 62
     7
100
AcDbLine
 10
43.744425
 20
129.888554
 30
0.0
 11
37.244425
 21
129.888554
 31
0.0
  0
LINE
  5
17A
100
AcDbEntity
  8
14
370
    30
  6
Continuous
 62
     7
100
AcDbLine
 10
52.844425
 20
100.388554
 30
0.0
 11
52.844425
 21
116.388554
 31
0.0
  0
LINE
  5
17B
100
AcDbEntity
  8
14
370
    30
  6
Continuous
 62
     7
100
AcDbLine
 10
52.844425
 20
115.338554
 30
0.0
 11
43.744425
 21
115.338554
 31
0.0
  0
LINE
  5
17C
100
AcDbEntity
  8
14
370
    30
  6
Continuous
 62
     7
100
AcDbLine
 10
52.844425
 20
109.188554
 30
0.0
 11
44.644425
 21
109.188554
 31
0.0
  0
LINE
  5
17D
100
AcDbEntity
  8
14
370
    30
  6
Continuous
 62
     7
100
AcDbLine
 10
52.844425
 20
107.588554
 30
0.0
 11
44.644425
 21
107.588554
 31
0.0
  0
LINE
  5
17E
100
AcDbEntity
  8
14
370
    30
  6
Continuous
 62
     7
100
AcDbLine
 10
52.844425
 20
101.438554
 30
0.0
 11
43.744425
 21
101.438554
 31
0.0
  0
LINE
  5
17F
100
AcDbEntity
  8
14
370
    30
  6
Continuous
 62
     7
100
AcDbLine
 10
52.844425
 20
103.038554
 30
0.0
 11
43.744425
 21
103.038554
 31
0.0
  0
LINE
  5
180
100
AcDbEntity
  8
14
370
    30
  6
Continuous
 62
     7
100
AcDbLine
 10
52.844425
 20
113.738554
 30
0.0
 11
43.744425
 21
113.738554
 31
0.0
  0
LINE
  5
181
100
AcDbEntity
  8
14
370
    30
  6
Continuous
 62
     7
100
AcDbLine
 10
45.144425
 20
115.338554
 30
0.0
 11
45.144425
 21
121.924268
 31
0.0
  0
LINE
  5
182
100
AcDbEntity
  8
14
370
    30
  6
Continuous
 62
     7
100
AcDbLine
 10
45.144425
 20
109.188554
 30
0.0
 11
45.144425
 21
113.738554
 31
0.0
  0
LINE
  5
183
100
AcDbEntity
  8
14
370
    30
  6
Continuous
 62
     7
100
AcDbLine
 10
45.144425
 20
94.85284
 30
0.0
 11
45.144425
 21
101.438554
 31
0.0
  0
LINE
  5
184
100
AcDbEntity
  8
14
370
    30
  6
Continuous
 62
     7
100
AcDbLine
 10
45.144425
 20
103.038554
 30
0.0
 11
45.144425
 21
107.588554
 31
0.0
  0
LINE
  5
185
100
AcDbEntity
  8
14
370
    30
  6
Continuous
 62
     7
100
AcDbLine
 10
50.644425
 20
103.038554
 30
0.0
 11
50.644425
 21
107.588554
 31
0.0
  0
LINE
  5
186
100
AcDbEntity
  8
14
370
    30
  6
Continuous
 62
     7
100
AcDbLine
 10
50.644425
 20
109.188554
 30
0.0
 11
50.644425
 21
113.738554
 31
0.0
  0
LINE
  5
187
100
AcDbEntity
  8
14
370
     9
  6
Continuous
 62
     7
100
AcDbLine
 10
43.744425
 20
128.888554
 30
0.0
 11
37.244425
 21
128.888554
 31
0.0
  0
LINE
  5
188
100
AcDbEntity
  8
14
370
     9
  6
Continuous
 62
     7
100
AcDbLine
 10
43.744425
 20
87.888554
 30
0.0
 11
37.244425
 21
87.888554
 31
0.0
  0
LINE
  5
189
100
AcDbEntity
  8
14
370
    30
  6
Continuous
 62
     7
100
AcDbLine
 10
52.844425
 20
116.388554
 30
0.0
 11
50.644425
 21
116.757602
 31
0.0
  0
LINE
  5
18A
100
AcDbEntity
  8
14
370
    30
  6
Continuous
 62
     7
100
AcDbLine
 10
50.644425
 20
116.757602
 30
0.0
 11
45.144425
 21
121.924268
 31
0.0
  0
LINE
  5
18B
100
AcDbEntity
  8
14
370
    30
  6
Continuous
 62
     7
100
AcDbLine
 10
52.844425
 20
100.388554
 30
0.0
 11
50.644425
 21
100.019506
 31
0.0
  0
LINE
  5
18C
100
AcDbEntity
  8
14
370
    30
  6
Continuous
 62
     7
100
AcDbLine
 10
50.644425
 20
100.019506
 30
0.0
 11
45.144425
 21
94.85284
 31
0.0
  0
LINE
  5
18D
100
AcDbEntity
  8
14
370
    30
  6
Continuous
 62
     7
100
AcDbLine
 10
50.644425
 20
115.338554
 30
0.0
 11
50.644425
 21
116.757602
 31
0.0
  0
LINE
  5
18E
100
AcDbEntity
  8
14
370
    30
  6
Continuous
 62
     7
100
AcDbLine
 10
50.644425
 20
100.019506
 30
0.0
 11
50.644425
 21
101.438554
 31
0.0
  0
LINE
  5
18F
100
AcDbEntity
  8
14
370
    30
  6
Continuous
 62
     7
100
AcDbLine
 10
44.644425
 20
101.438554
 30
0.0
 11
44.644425
 21
115.338554
 31
0.0
  0
LINE
  5
190
100
AcDbEntity
  8
14
370
    30
  6
Continuous
 62
     7
100
AcDbLine
 10
45.144425
 20
121.924268
 30
0.0
 11
43.744425
 21
130.412364
 31
0.0
  0
LINE
  5
191
100
AcDbEntity
  8
14
370
    30
  6
Continuous
 62
     7
100
AcDbLine
 10
45.144425
 20
94.85284
 30
0.0
 11
43.744425
 21
86.364745
 31
0.0
  0
LINE
  5
192
100
AcDbEntity
  8
14
370
     9
  6
CENTER
 62
     1
100
AcDbLine
 10
40.494425
 20
133.527008
 30
0.0
 11
40.494425
 21
83.527008
 31
0.0
  0
LINE
  5
193
100
AcDbEntity
  8
14
370
     9
  6
Continuous
 62
     7
100
AcDbLine
 10
37.244425
 20
108.888554
 30
0.0
 11
43.744425
 21
108.888554
 31
0.0
  0
LINE
  5
194
100
AcDbEntity
  8
14
370
     9
  6
Continuous
 62
     7
100
AcDbLine
 10
43.744426
 20
127.263554
 30
0.0
 11
37.244426
 21
127.263554
 31
0.0
  0
CIRCLE
  5
195
100
AcDbEntity
  8
14
370
     9
  6
Continuous
 62
     7
100
AcDbCircle
 10
40.494425
 20
128.076054
 30
0.0
 40
0.8125
  0
LINE
  5
196
100
AcDbEntity
  8
14
370
     9
  6
Continuous
 62
     7
100
AcDbLine
 10
43.744425
 20
126.263554
 30
0.0
 11
37.244425
 21
126.263554
 31
0.0
  0
LINE
  5
197
100
AcDbEntity
  8
14
370
     9
  6
Continuous
 62
     7
100
AcDbLine
 10
43.744426
 20
124.638554
 30
0.0
 11
37.244426
 21
124.638554
 31
0.0
  0
CIRCLE
  5
198
100
AcDbEntity
  8
14
370
     9
  6
Continuous
 62
     7
100
AcDbCircle
 10
40.494425
 20
125.451054
 30
0.0
 40
0.8125
  0
LINE
  5
199
100
AcDbEntity
  8
14
370
     9
  6
Continuous
 62
     7
100
AcDbLine
 10
43.744425
 20
123.638554
 30
0.0
 11
37.244425
 21
123.638554
 31
0.0
  0
LINE
  5
19A
100
AcDbEntity
  8
14
370
     9
  6
Continuous
 62
     7
100
AcDbLine
 10
43.744426
 20
122.013554
 30
0.0
 11
37.244426
 21
122.013554
 31
0.0
  0
CIRCLE
  5
19B
100
AcDbEntity
  8
14
370
     9
  6
Continuous
 62
     7
100
AcDbCircle
 10
40.494425
 20
122.826054
 30
0.0
 40
0.8125
  0
LINE
  5
19C
100
AcDbEntity
  8
14
370
     9
  6
Continuous
 62
     7
100
AcDbLine
 10
43.744425
 20
121.013554
 30
0.0
 11
37.244425
 21
121.013554
 31
0.0
  0
LINE
  5
19D
100
AcDbEntity
  8
14
370
     9
  6
Continuous
 62
     7
100
AcDbLine
 10
43.744426
 20
119.388554
 30
0.0
 11
37.244426
 21
119.388554
 31
0.0
  0
CIRCLE
  5
19E
100
AcDbEntity
  8
14
370
     9
  6
Continuous
 62
     7
100
AcDbCircle
 10
40.494425
 20
120.201054
 30
0.0
 40
0.8125
  0
LINE
  5
19F
100
AcDbEntity
  8
14
370
     9
  6
Continuous
 62
     7
100
AcDbLine
 10
43.744425
 20
118.388554
 30
0.0
 11
37.244425
 21
118.388554
 31
0.0
  0
LINE
  5
1A0
100
AcDbEntity
  8
14
370
     9
  6
Continuous
 62
     7
100
AcDbLine
 10
43.744426
 20
116.763554
 30
0.0
 11
37.244426
 21
116.763554
 31
0.0
  0
CIRCLE
  5
1A1
100
AcDbEntity
  8
14
370
     9
  6
Continuous
 62
     7
100
AcDbCircle
 10
40.494425
 20
117.576054
 30
0.0
 40
0.8125
  0
LINE
  5
1A2
100
AcDbEntity
  8
14
370
     9
  6
Continuous
 62
     7
100
AcDbLine
 10
43.744425
 20
115.763554
 30
0.0
 11
37.244425
 21
115.763554
 31
0.0
  0
LINE
  5
1A3
100
AcDbEntity
  8
14
370
     9
  6
Continuous
 62
     7
100
AcDbLine
 10
43.744426
 20
114.138554
 30
0.0
 11
37.244426
 21
114.138554
 31
0.0
  0
CIRCLE
  5
1A4
100
AcDbEntity
  8
14
370
     9
  6
Continuous
 62
     7
100
AcDbCircle
 10
40.494425
 20
114.951054
 30
0.0
 40
0.8125
  0
LINE
  5
1A5
100
AcDbEntity
  8
14
370
     9
  6
Continuous
 62
     7
100
AcDbLine
 10
43.744425
 20
113.138554
 30
0.0
 11
37.244425
 21
113.138554
 31
0.0
  0
LINE
  5
1A6
100
AcDbEntity
  8
14
370
     9
  6
Continuous
 62
     7
100
AcDbLine
 10
43.744426
 20
111.513554
 30
0.0
 11
37.244426
 21
111.513554
 31
0.0
  0
CIRCLE
  5
1A7
100
AcDbEntity
  8
14
370
     9
  6
Continuous
 62
     7
100
AcDbCircle
 10
40.494425
 20
112.326054
 30
0.0
 40
0.8125
  0
LINE
  5
1A8
100
AcDbEntity
  8
14
370
     9
  6
Continuous
 62
     7
100
AcDbLine
 10
43.744425
 20
110.513554
 30
0.0
 11
37.244425
 21
110.513554
 31
0.0
  0
CIRCLE
  5
1A9
100
AcDbEntity
  8
14
370
     9
  6
Continuous
 62
     7
100
AcDbCircle
 10
40.494425
 20
109.701054
 30
0.0
 40
0.8125
  0
LINE
  5
1AA
100
AcDbEntity
  8
14
370
     9
  6
Continuous
 62
     7
100
AcDbLine
 10
41.556925
 20
127.263554
 30
0.0
 11
41.556925
 21
128.888554
 31
0.0
  0
LINE
  5
1AB
100
AcDbEntity
  8
14
370
     9
  6
Continuous
 62
     7
100
AcDbLine
 10
39.431925
 20
127.263554
 30
0.0
 11
39.431925
 21
128.888554
 31
0.0
  0
LINE
  5
1AC
100
AcDbEntity
  8
14
370
     9
  6
Continuous
 62
     7
100
AcDbLine
 10
41.556925
 20
124.638554
 30
0.0
 11
41.556925
 21
126.263554
 31
0.0
  0
LINE
  5
1AD
100
AcDbEntity
  8
14
370
     9
  6
Continuous
 62
     7
100
AcDbLine
 10
39.431925
 20
124.638554
 30
0.0
 11
39.431925
 21
126.263554
 31
0.0
  0
LINE
  5
1AE
100
AcDbEntity
  8
14
370
     9
  6
Continuous
 62
     7
100
AcDbLine
 10
41.556925
 20
122.013554
 30
0.0
 11
41.556925
 21
123.638554
 31
0.0
  0
LINE
  5
1AF
100
AcDbEntity
  8
14
370
     9
  6
Continuous
 62
     7
100
AcDbLine
 10
39.431925
 20
122.013554
 30
0.0
 11
39.431925
 21
123.638554
 31
0.0
  0
LINE
  5
1B0
100
AcDbEntity
  8
14
370
     9
  6
Continuous
 62
     7
100
AcDbLine
 10
41.556925
 20
119.388554
 30
0.0
 11
41.556925
 21
121.013554
 31
0.0
  0
LINE
  5
1B1
100
AcDbEntity
  8
14
370
     9
  6
Continuous
 62
     7
100
AcDbLine
 10
39.431925
 20
119.388554
 30
0.0
 11
39.431925
 21
121.013554
 31
0.0
  0
LINE
  5
1B2
100
AcDbEntity
  8
14
370
     9
  6
Continuous
 62
     7
100
AcDbLine
 10
41.556925
 20
116.763554
 30
0.0
 11
41.556925
 21
118.388554
 31
0.0
  0
LINE
  5
1B3
100
AcDbEntity
  8
14
370
     9
  6
Continuous
 62
     7
100
AcDbLine
 10
39.431925
 20
116.763554
 30
0.0
 11
39.431925
 21
118.388554
 31
0.0
  0
LINE
  5
1B4
100
AcDbEntity
  8
14
370
     9
  6
Continuous
 62
     7
100
AcDbLine
 10
41.556925
 20
114.138554
 30
0.0
 11
41.556925
 21
115.763554
 31
0.0
  0
LINE
  5
1B5
100
AcDbEntity
  8
14
370
     9
  6
Continuous
 62
     7
100
AcDbLine
 10
39.431925
 20
114.138554
 30
0.0
 11
39.431925
 21
115.763554
 31
0.0
  0
LINE
  5
1B6
100
AcDbEntity
  8
14
370
     9
  6
Continuous
 62
     7
100
AcDbLine
 10
41.556925
 20
111.513554
 30
0.0
 11
41.556925
 21
113.138554
 31
0.0
  0
LINE
  5
1B7
100
AcDbEntity
  8
14
370
     9
  6
Continuous
 62
     7
100
AcDbLine
 10
39.431925
 20
111.513554
 30
0.0
 11
39.431925
 21
113.138554
 31
0.0
  0
LINE
  5
1B8
100
AcDbEntity
  8
14
370
     9
  6
Continuous
 62
     7
100
AcDbLine
 10
41.556925
 20
108.888554
 30
0.0
 11
41.556925
 21
110.513554
 31
0.0
  0
LINE
  5
1B9
100
AcDbEntity
  8
14
370
     9
  6
Continuous
 62
     7
100
AcDbLine
 10
39.431925
 20
108.888554
 30
0.0
 11
39.431925
 21
110.513554
 31
0.0
  0
LINE
  5
1BA
100
AcDbEntity
  8
14
370
     9
  6
Continuous
 62
     7
100
AcDbLine
 10
37.244425
 20
107.888554
 30
0.0
 11
43.744425
 21
107.888554
 31
0.0
  0
LINE
  5
1BB
100
AcDbEntity
  8
14
370
     9
  6
Continuous
 62
     7
100
AcDbLine
 10
43.744426
 20
89.513554
 30
0.0
 11
37.244426
 21
89.513554
 31
0.0
  0
CIRCLE
  5
1BC
100
AcDbEntity
  8
14
370
     9
  6
Continuous
 62
     7
100
AcDbCircle
 10
40.494425
 20
88.701054
 30
0.0
 40
0.8125
  0
LINE
  5
1BD
100
AcDbEntity
  8
14
370
     9
  6
Continuous
 62
     7
100
AcDbLine
 10
43.744425
 20
90.513554
 30
0.0
 11
37.244425
 21
90.513554
 31
0.0
  0
LINE
  5
1BE
100
AcDbEntity
  8
14
370
     9
  6
Continuous
 62
     7
100
AcDbLine
 10
43.744426
 20
92.138554
 30
0.0
 11
37.244426
 21
92.138554
 31
0.0
  0
CIRCLE
  5
1BF
100
AcDbEntity
  8
14
370
     9
  6
Continuous
 62
     7
100
AcDbCircle
 10
40.494425
 20
91.326054
 30
0.0
 40
0.8125
  0
LINE
  5
1C0
100
AcDbEntity
  8
14
370
     9
  6
Continuous
 62
     7
100
AcDbLine
 10
43.744425
 20
93.138554
 30
0.0
 11
37.244425
 21
93.138554
 31
0.0
  0
LINE
  5
1C1
100
AcDbEntity
  8
14
370
     9
  6
Continuous
 62
     7
100
AcDbLine
 10
43.744426
 20
94.763554
 30
0.0
 11
37.244426
 21
94.763554
 31
0.0
  0
CIRCLE
  5
1C2
100
AcDbEntity
  8
14
370
     9
  6
Continuous
 62
     7
100
AcDbCircle
 10
40.494425
 20
93.951054
 30
0.0
 40
0.8125
  0
LINE
  5
1C3
100
AcDbEntity
  8
14
370
     9
  6
Continuous
 62
     7
100
AcDbLine
 10
43.744425
 20
95.763554
 30
0.0
 11
37.244425
 21
95.763554
 31
0.0
  0
LINE
  5
1C4
100
AcDbEntity
  8
14
370
     9
  6
Continuous
 62
     7
100
AcDbLine
 10
43.744426
 20
97.388554
 30
0.0
 11
37.244426
 21
97.388554
 31
0.0
  0
CIRCLE
  5
1C5
100
AcDbEntity
  8
14
370
     9
  6
Continuous
 62
     7
100
AcDbCircle
 10
40.494425
 20
96.576054
 30
0.0
 40
0.8125
  0
LINE
  5
1C6
100
AcDbEntity
  8
14
370
     9
  6
Continuous
 62
     7
100
AcDbLine
 10
43.744425
 20
98.388554
 30
0.0
 11
37.244425
 21
98.388554
 31
0.0
  0
LINE
  5
1C7
100
AcDbEntity
  8
14
370
     9
  6
Continuous
 62
     7
100
AcDbLine
 10
43.744426
 20
100.013554
 30
0.0
 11
37.244426
 21
100.013554
 31
0.0
  0
CIRCLE
  5
1C8
100
AcDbEntity
  8
14
370
     9
  6
Continuous
 62
     7
100
AcDbCircle
 10
40.494425
 20
99.201054
 30
0.0
 40
0.8125
  0
LINE
  5
1C9
100
AcDbEntity
  8
14
370
     9
  6
Continuous
 62
     7
100
AcDbLine
 10
43.744425
 20
101.013554
 30
0.0
 11
37.244425
 21
101.013554
 31
0.0
  0
LINE
  5
1CA
100
AcDbEntity
  8
14
370
     9
  6
Continuous
 62
     7
100
AcDbLine
 10
43.744426
 20
102.638554
 30
0.0
 11
37.244426
 21
102.638554
 31
0.0
  0
CIRCLE
  5
1CB
100
AcDbEntity
  8
14
370
     9
  6
Continuous
 62
     7
100
AcDbCircle
 10
40.494425
 20
101.826054
 30
0.0
 40
0.8125
  0
LINE
  5
1CC
100
AcDbEntity
  8
14
370
     9
  6
Continuous
 62
     7
100
AcDbLine
 10
43.744425
 20
103.638554
 30
0.0
 11
37.244425
 21
103.638554
 31
0.0
  0
LINE
  5
1CD
100
AcDbEntity
  8
14
370
     9
  6
Continuous
 62
     7
100
AcDbLine
 10
43.744426
 20
105.263554
 30
0.0
 11
37.244426
 21
105.263554
 31
0.0
  0
CIRCLE
  5
1CE
100
AcDbEntity
  8
14
370
     9
  6
Continuous
 62
     7
100
AcDbCircle
 10
40.494425
 20
104.451054
 30
0.0
 40
0.8125
  0
LINE
  5
1CF
100
AcDbEntity
  8
14
370
     9
  6
Continuous
 62
     7
100
AcDbLine
 10
43.744425
 20
106.263554
 30
0.0
 11
37.244425
 21
106.263554
 31
0.0
  0
CIRCLE
  5
1D0
100
AcDbEntity
  8
14
370
     9
  6
Continuous
 62
     7
100
AcDbCircle
 10
40.494425
 20
107.076054
 30
0.0
 40
0.8125
  0
LINE
  5
1D1
100
AcDbEntity
  8
14
370
     9
  6
Continuous
 62
     7
100
AcDbLine
 10
41.556925
 20
89.513554
 30
0.0
 11
41.556925
 21
87.888554
 31
0.0
  0
LINE
  5
1D2
100
AcDbEntity
  8
14
370
     9
  6
Continuous
 62
     7
100
AcDbLine
 10
39.431925
 20
89.513554
 30
0.0
 11
39.431925
 21
87.888554
 31
0.0
  0
LINE
  5
1D3
100
AcDbEntity
  8
14
370
     9
  6
Continuous
 62
     7
100
AcDbLine
 10
41.556925
 20
92.138554
 30
0.0
 11
41.556925
 21
90.513554
 31
0.0
  0
LINE
  5
1D4
100
AcDbEntity
  8
14
370
     9
  6
Continuous
 62
     7
100
AcDbLine
 10
39.431925
 20
92.138554
 30
0.0
 11
39.431925
 21
90.513554
 31
0.0
  0
LINE
  5
1D5
100
AcDbEntity
  8
14
370
     9
  6
Continuous
 62
     7
100
AcDbLine
 10
41.556925
 20
94.763554
 30
0.0
 11
41.556925
 21
93.138554
 31
0.0
  0
LINE
  5
1D6
100
AcDbEntity
  8
14
370
     9
  6
Continuous
 62
     7
100
AcDbLine
 10
39.431925
 20
94.763554
 30
0.0
 11
39.431925
 21
93.138554
 31
0.0
  0
LINE
  5
1D7
100
AcDbEntity
  8
14
370
     9
  6
Continuous
 62
     7
100
AcDbLine
 10
41.556925
 20
97.388554
 30
0.0
 11
41.556925
 21
95.763554
 31
0.0
  0
LINE
  5
1D8
100
AcDbEntity
  8
14
370
     9
  6
Continuous
 62
     7
100
AcDbLine
 10
39.431925
 20
97.388554
 30
0.0
 11
39.431925
 21
95.763554
 31
0.0
  0
LINE
  5
1D9
100
AcDbEntity
  8
14
370
     9
  6
Continuous
 62
     7
100
AcDbLine
 10
41.556925
 20
100.013554
 30
0.0
 11
41.556925
 21
98.388554
 31
0.0
  0
LINE
  5
1DA
100
AcDbEntity
  8
14
370
     9
  6
Continuous
 62
     7
100
AcDbLine
 10
39.431925
 20
100.013554
 30
0.0
 11
39.431925
 21
98.388554
 31
0.0
  0
LINE
  5
1DB
100
AcDbEntity
  8
14
370
     9
  6
Continuous
 62
     7
100
AcDbLine
 10
41.556925
 20
102.638554
 30
0.0
 11
41.556925
 21
101.013554
 31
0.0
  0
LINE
  5
1DC
100
AcDbEntity
  8
14
370
     9
  6
Continuous
 62
     7
100
AcDbLine
 10
39.431925
 20
102.638554
 30
0.0
 11
39.431925
 21
101.013554
 31
0.0
  0
LINE
  5
1DD
100
AcDbEntity
  8
14
370
     9
  6
Continuous
 62
     7
100
AcDbLine
 10
41.556925
 20
105.263554
 30
0.0
 11
41.556925
 21
103.638554
 31
0.0
  0
LINE
  5
1DE
100
AcDbEntity
  8
14
370
     9
  6
Continuous
 62
     7
100
AcDbLine
 10
39.431925
 20
105.263554
 30
0.0
 11
39.431925
 21
103.638554
 31
0.0
  0
LINE
  5
1DF
100
AcDbEntity
  8
14
370
     9
  6
Continuous
 62
     7
100
AcDbLine
 10
41.556925
 20
107.888554
 30
0.0
 11
41.556925
 21
106.263554
 31
0.0
  0
LINE
  5
1E0
100
AcDbEntity
  8
14
370
     9
  6
Continuous
 62
     7
100
AcDbLine
 10
39.431925
 20
107.888554
 30
0.0
 11
39.431925
 21
106.263554
 31
0.0
  0
LINE
  5
1E1
100
AcDbEntity
  8
14
370
     9
  6
CENTER
 62
     1
100
AcDbLine
 10
44.844425
 20
112.388554
 30
0.0
 11
44.844425
 21
104.388554
 31
0.0
  0
ENDBLK
  5
1E2
100
AcDbEntity
  8
0
100
AcDbBlockEnd
  0
BLOCK
  5
1EE
100
AcDbEntity
  8
0
370
     9
  6
Continuous
 62
     7
100
AcDbBlockBegin
  2
*G18
 70
     0
 10
0.0
 20
0.0
 30
0.0
  3
*G18
  1

  0
LINE
  5
1EF
100
AcDbEntity
  8
14
370
     9
  6
CENTER
 62
     1
100
AcDbLine
 10
38.155738
 20
128.076054
 30
0.0
 11
42.889344
 21
128.076054
 31
0.0
  0
ENDBLK
  5
1F0
100
AcDbEntity
  8
0
100
AcDbBlockEnd
  0
BLOCK
  5
1F3
100
AcDbEntity
  8
0
370
     9
  6
Continuous
 62
     7
100
AcDbBlockBegin
  2
*G19
 70
     0
 10
0.0
 20
0.0
 30
0.0
  3
*G19
  1

  0
LINE
  5
1F4
100
AcDbEntity
  8
14
370
     9
  6
CENTER
 62
     1
100
AcDbLine
 10
38.155738
 20
88.701054
 30
0.0
 11
42.889344
 21
88.701054
 31
0.0
  0
ENDBLK
  5
1F5
100
AcDbEntity
  8
0
100
AcDbBlockEnd
  0
BLOCK
  5
1F8
100
AcDbEntity
  8
16
370
     9
  6
Continuous
 62
   174
100
AcDbBlockBegin
  2
*D20
 70
     0
 10
0.0
 20
0.0
 30
0.0
  3
*D20
  1

  0
LINE
  5
1F9
100
AcDbEntity
  8
16
370
     9
  6
Continuous
 62
   174
100
AcDbLine
 10
63.64071
 20
131.888554
 30
0.0
 11
63.64071
 21
84.888554
 31
0.0
  0
LINE
  5
1FA
100
AcDbEntity
  8
16
370
     9
  6
Continuous
 62
   174
100
AcDbLine
 10
64.64071
 20
131.888554
 30
0.0
 11
45.744425
 21
131.888554
 31
0.0
  0
LINE
  5
1FB
100
AcDbEntity
  8
16
370
     9
  6
Continuous
 62
   174
100
AcDbLine
 10
64.64071
 20
84.888554
 30
0.0
 11
45.744425
 21
84.888554
 31
0.0
  0
LINE
  5
1FC
100
AcDbEntity
  8
16
370
     9
  6
Continuous
 62
   174
100
AcDbLine
 10
63.64071
 20
131.888554
 30
0.0
 11
64.417168
 21
128.990777
 31
0.0
  0
LINE
  5
1FD
100
AcDbEntity
  8
16
370
     9
  6
Continuous
 62
   174
100
AcDbLine
 10
63.64071
 20
131.888554
 30
0.0
 11
62.864253
 21
128.990777
 31
0.0
  0
LINE
  5
1FE
100
AcDbEntity
  8
16
370
     9
  6
Continuous
 62
   174
100
AcDbLine
 10
63.64071
 20
84.888554
 30
0.0
 11
62.864253
 21
87.786332
 31
0.0
  0
LINE
  5
1FF
100
AcDbEntity
  8
16
370
     9
  6
Continuous
 62
   174
100
AcDbLine
 10
63.64071
 20
84.888554
 30
0.0
 11
64.417168
 21
87.786332
 31
0.0
  0
TEXT
  5
200
100
AcDbEntity
  8
16
370
     9
  6
Continuous
 62
   174
100
AcDbText
 10
63.64071
 20
105.888554
 30
0.0
 40
5.0
  1
47
 50
90.0
 41
0.5
 11
63.64071
 21
105.888554
 31
0.0
100
AcDbText
 73
     1
  0
ENDBLK
  5
201
100
AcDbEntity
  8
16
370
     9
  6
Continuous
 62
   174
100
AcDbBlockEnd
  0
BLOCK
  5
204
100
AcDbEntity
  8
0
370
     9
  6
Continuous
 62
     7
100
AcDbBlockBegin
  2
*G21
 70
     0
 10
0.0
 20
0.0
 30
0.0
  3
*G21
  1

  0
LINE
  5
205
100
AcDbEntity
  8
14
370
     9
  6
Continuous
 62
     7
100
AcDbLine
 10
99.643092
 20
108.888554
 30
0.0
 11
110.643092
 21
108.888554
 31
0.0
  0
LINE
  5
206
100
AcDbEntity
  8
14
370
     9
  6
Continuous
 62
     7
100
AcDbLine
 10
101.643092
 20
128.888554
 30
0.0
 11
101.643092
 21
127.263554
 31
0.0
  0
LINE
  5
207
100
AcDbEntity
  8
14
370
     9
  6
Continuous
 62
     7
100
AcDbLine
 10
101.643092
 20
126.263554
 30
0.0
 11
101.643092
 21
124.638554
 31
0.0
  0
LINE
  5
208
100
AcDbEntity
  8
14
370
     9
  6
Continuous
 62
     7
100
AcDbLine
 10
101.643092
 20
123.638554
 30
0.0
 11
101.643092
 21
122.013554
 31
0.0
  0
LINE
  5
209
100
AcDbEntity
  8
14
370
     9
  6
Continuous
 62
     7
100
AcDbLine
 10
101.643092
 20
121.013554
 30
0.0
 11
101.643092
 21
119.388554
 31
0.0
  0
LINE
  5
20A
100
AcDbEntity
  8
14
370
     9
  6
Continuous
 62
     7
100
AcDbLine
 10
101.643092
 20
118.388554
 30
0.0
 11
101.643092
 21
116.763554
 31
0.0
  0
LINE
  5
20B
100
AcDbEntity
  8
14
370
     9
  6
Continuous
 62
     7
100
AcDbLine
 10
101.643092
 20
115.763554
 30
0.0
 11
101.643092
 21
114.138554
 31
0.0
  0
LINE
  5
20C
100
AcDbEntity
  8
14
370
     9
  6
Continuous
 62
     7
100
AcDbLine
 10
101.643092
 20
113.138554
 30
0.0
 11
101.643092
 21
111.513554
 31
0.0
  0
LINE
  5
20D
100
AcDbEntity
  8
14
370
     9
  6
Continuous
 62
     7
100
AcDbLine
 10
101.643092
 20
110.513554
 30
0.0
 11
101.643092
 21
108.888554
 31
0.0
  0
LINE
  5
20E
100
AcDbEntity
  8
14
370
    30
  6
Continuous
 62
     7
100
AcDbLine
 10
99.643092
 20
86.888554
 30
0.0
 11
110.343092
 21
84.888554
 31
0.0
  0
LINE
  5
20F
100
AcDbEntity
  8
14
370
    30
  6
Continuous
 62
     7
100
AcDbLine
 10
110.343092
 20
84.888554
 30
0.0
 11
126.643092
 21
84.888554
 31
0.0
  0
LINE
  5
210
100
AcDbEntity
  8
14
370
    30
  6
Continuous
 62
     7
100
AcDbLine
 10
178.643092
 20
108.388554
 30
0.0
 11
178.643092
 21
100.388554
 31
0.0
  0
LINE
  5
211
100
AcDbEntity
  8
14
370
    30
  6
Continuous
 62
     7
100
AcDbLine
 10
178.643092
 20
100.388554
 30
0.0
 11
168.643092
 21
100.388554
 31
0.0
  0
LINE
  5
212
100
AcDbEntity
  8
14
370
    30
  6
Continuous
 62
     7
100
AcDbLine
 10
168.643092
 20
100.388554
 30
0.0
 11
126.643092
 21
84.888554
 31
0.0
  0
LINE
  5
213
100
AcDbEntity
  8
14
370
     9
  6
Continuous
 62
     7
100
AcDbLine
 10
130.643092
 20
108.388554
 30
0.0
 11
130.643092
 21
86.364745
 31
0.0
  0
ARC
  5
214
100
AcDbEntity
  8
14
370
    30
  6
Continuous
 62
     7
100
AcDbCircle
 10
140.643092
 20
108.388554
 30
0.0
 40
2.5
100
AcDbArc
 50
180.0
 51
0.0
  0
LINE
  5
215
100
AcDbEntity
  8
14
370
    30
  6
Continuous
 62
     7
100
AcDbLine
 10
168.643092
 20
100.388554
 30
0.0
 11
168.643092
 21
108.388554
 31
0.0
  0
LINE
  5
216
100
AcDbEntity
  8
14
370
    30
  6
Continuous
 62
     7
100
AcDbLine
 10
178.643092
 20
101.388554
 30
0.0
 11
190.643092
 21
101.888554
 31
0.0
  0
LINE
  5
217
100
AcDbEntity
  8
14
370
    30
  6
Continuous
 62
     7
100
AcDbLine
 10
190.643092
 20
101.888554
 30
0.0
 11
190.643092
 21
108.388554
 31
0.0
  0
LINE
  5
218
100
AcDbEntity
  8
14
370
    30
  6
Continuous
 62
     7
100
AcDbLine
 10
99.643092
 20
129.888554
 30
0.0
 11
110.343092
 21
131.888554
 31
0.0
  0
LINE
  5
219
100
AcDbEntity
  8
14
370
    30
  6
Continuous
 62
     7
100
AcDbLine
 10
110.343092
 20
131.888554
 30
0.0
 11
126.643092
 21
131.888554
 31
0.0
  0
LINE
  5
21A
100
AcDbEntity
  8
14
370
    30
  6
Continuous
 62
     7
100
AcDbLine
 10
178.643092
 20
108.388554
 30
0.0
 11
178.643092
 21
116.388554
 31
0.0
  0
LINE
  5
21B
100
AcDbEntity
  8
14
370
    30
  6
Continuous
 62
     7
100
AcDbLine
 10
178.643092
 20
116.388554
 30
0.0
 11
168.643092
 21
116.388554
 31
0.0
  0
LINE
  5
21C
100
AcDbEntity
  8
14
370
    30
  6
Continuous
 62
     7
100
AcDbLine
 10
168.643092
 20
116.388554
 30
0.0
 11
126.643092
 21
131.888554
 31
0.0
  0
LINE
  5
21D
100
AcDbEntity
  8
14
370
     9
  6
Continuous
 62
     7
100
AcDbLine
 10
130.643092
 20
108.388554
 30
0.0
 11
130.643092
 21
130.412364
 31
0.0
  0
ARC
  5
21E
100
AcDbEntity
  8
14
370
    30
  6
Continuous
 62
     7
100
AcDbCircle
 10
140.643092
 20
108.388554
 30
0.0
 40
2.5
100
AcDbArc
 50
0.0
 51
180.0
  0
LINE
  5
21F
100
AcDbEntity
  8
14
370
    30
  6
Continuous
 62
     7
100
AcDbLine
 10
168.643092
 20
116.388554
 30
0.0
 11
168.643092
 21
108.388554
 31
0.0
  0
LINE
  5
220
100
AcDbEntity
  8
14
370
    30
  6
Continuous
 62
     7
100
AcDbLine
 10
178.643092
 20
115.388554
 30
0.0
 11
190.643092
 21
114.888554
 31
0.0
  0
LINE
  5
221
100
AcDbEntity
  8
14
370
    30
  6
Continuous
 62
     7
100
AcDbLine
 10
190.643092
 20
114.888554
 30
0.0
 11
190.643092
 21
108.388554
 31
0.0
  0
LINE
  5
222
100
AcDbEntity
  8
14
370
    30
  6
Continuous
 62
     7
100
AcDbLine
 10
140.643092
 20
113.738554
 30
0.0
 11
168.643092
 21
113.738554
 31
0.0
  0
LINE
  5
223
100
AcDbEntity
  8
14
370
    30
  6
Continuous
 62
     7
100
AcDbLine
 10
140.643092
 20
115.338554
 30
0.0
 11
168.643092
 21
115.338554
 31
0.0
  0
LINE
  5
224
100
AcDbEntity
  8
14
370
    30
  6
Continuous
 62
     7
100
AcDbLine
 10
167.643092
 20
115.338554
 30
0.0
 11
167.643092
 21
116.873303
 31
0.0
  0
LINE
  5
225
100
AcDbEntity
  8
14
370
    30
  6
Continuous
 62
     7
100
AcDbLine
 10
145.932941
 20
109.188554
 30
0.0
 11
168.643092
 21
109.188554
 31
0.0
  0
LINE
  5
226
100
AcDbEntity
  8
14
370
    30
  6
Continuous
 62
     7
100
AcDbLine
 10
167.643092
 20
109.188554
 30
0.0
 11
167.643092
 21
113.738554
 31
0.0
  0
LINE
  5
227
100
AcDbEntity
  8
14
370
    30
  6
Continuous
 62
     7
100
AcDbLine
 10
145.932941
 20
107.588554
 30
0.0
 11
168.643092
 21
107.588554
 31
0.0
  0
LINE
  5
228
100
AcDbEntity
  8
14
370
    30
  6
Continuous
 62
     7
100
AcDbLine
 10
167.643092
 20
107.588554
 30
0.0
 11
167.643092
 21
103.038554
 31
0.0
  0
LINE
  5
229
100
AcDbEntity
  8
14
370
    30
  6
Continuous
 62
     7
100
AcDbLine
 10
167.643092
 20
101.438554
 30
0.0
 11
167.643092
 21
99.903805
 31
0.0
  0
LINE
  5
22A
100
AcDbEntity
  8
14
370
    30
  6
Continuous
 62
     7
100
AcDbLine
 10
153.643092
 20
115.338554
 30
0.0
 11
153.643092
 21
121.924268
 31
0.0
  0
LINE
  5
22B
100
AcDbEntity
  8
14
370
    30
  6
Continuous
 62
     7
100
AcDbLine
 10
153.643092
 20
109.188554
 30
0.0
 11
153.643092
 21
113.738554
 31
0.0
  0
LINE
  5
22C
100
AcDbEntity
  8
14
370
    30
  6
Continuous
 62
     7
100
AcDbLine
 10
153.643092
 20
107.588554
 30
0.0
 11
153.643092
 21
103.038554
 31
0.0
  0
LINE
  5
22D
100
AcDbEntity
  8
14
370
    30
  6
Continuous
 62
     7
100
AcDbLine
 10
153.643092
 20
101.438554
 30
0.0
 11
153.643092
 21
94.85284
 31
0.0
  0
LINE
  5
22E
100
AcDbEntity
  8
14
370
    30
  6
Continuous
 62
     7
100
AcDbLine
 10
140.643092
 20
103.038554
 30
0.0
 11
168.643092
 21
103.038554
 31
0.0
  0
LINE
  5
22F
100
AcDbEntity
  8
14
370
    30
  6
Continuous
 62
     7
100
AcDbLine
 10
140.643092
 20
101.438554
 30
0.0
 11
168.643092
 21
101.438554
 31
0.0
  0
ARC
  5
230
100
AcDbEntity
  8
14
370
    30
  6
Continuous
 62
     7
100
AcDbCircle
 10
140.643092
 20
108.388554
 30
0.0
 40
5.35
100
AcDbArc
 50
0.0
 51
180.0
  0
ARC
  5
231
100
AcDbEntity
  8
14
370
    30
  6
Continuous
 62
     7
100
AcDbCircle
 10
140.643092
 20
108.388554
 30
0.0
 40
5.35
100
AcDbArc
 50
180.0
 51
0.0
  0
LINE
  5
232
100
AcDbEntity
  8
14
370
    30
  6
Continuous
 62
     7
100
AcDbLine
 10
140.643092
 20
115.338554
 30
0.0
 11
140.643092
 21
113.738554
 31
0.0
  0
LINE
  5
233
100
AcDbEntity
  8
14
370
    30
  6
Continuous
 62
     7
100
AcDbLine
 10
140.643092
 20
101.438554
 30
0.0
 11
140.643092
 21
103.038554
 31
0.0
  0
LINE
  5
234
100
AcDbEntity
  8
14
370
     9
  6
CENTER
 62
     1
100
AcDbLine
 10
93.559273
 20
108.388554
 30
0.0
 11
195.251834
 21
108.388554
 31
0.0
  0
LINE
  5
235
100
AcDbEntity
  8
14
370
     9
  6
CENTER
 62
     1
100
AcDbLine
 10
184.143092
 20
111.476159
 30
0.0
 11
184.143092
 21
105.349016
 31
0.0
  0
LINE
  5
236
100
AcDbEntity
  8
14
370
     9
  6
CENTER
 62
     1
100
AcDbLine
 10
140.643092
 20
113.738554
 30
0.0
 11
140.643092
 21
103.038554
 31
0.0
  0
LINE
  5
237
100
AcDbEntity
  8
14
370
     9
  6
Continuous
 62
     7
100
AcDbLine
 10
110.643092
 20
127.263554
 30
0.0
 11
110.643092
 21
128.888554
 31
0.0
  0
LINE
  5
238
100
AcDbEntity
  8
14
370
     9
  6
Continuous
 62
     7
100
AcDbLine
 10
110.643092
 20
124.638554
 30
0.0
 11
110.643092
 21
126.263554
 31
0.0
  0
LINE
  5
239
100
AcDbEntity
  8
14
370
     9
  6
Continuous
 62
     7
100
AcDbLine
 10
110.643092
 20
122.013554
 30
0.0
 11
110.643092
 21
123.638554
 31
0.0
  0
LINE
  5
23A
100
AcDbEntity
  8
14
370
     9
  6
Continuous
 62
     7
100
AcDbLine
 10
110.643092
 20
119.388554
 30
0.0
 11
110.643092
 21
121.013554
 31
0.0
  0
LINE
  5
23B
100
AcDbEntity
  8
14
370
     9
  6
Continuous
 62
     7
100
AcDbLine
 10
110.643092
 20
116.763554
 30
0.0
 11
110.643092
 21
118.388554
 31
0.0
  0
LINE
  5
23C
100
AcDbEntity
  8
14
370
     9
  6
Continuous
 62
     7
100
AcDbLine
 10
110.643092
 20
114.138554
 30
0.0
 11
110.643092
 21
115.763554
 31
0.0
  0
LINE
  5
23D
100
AcDbEntity
  8
14
370
     9
  6
Continuous
 62
     7
100
AcDbLine
 10
110.643092
 20
111.513554
 30
0.0
 11
110.643092
 21
113.138554
 31
0.0
  0
LINE
  5
23E
100
AcDbEntity
  8
14
370
     9
  6
Continuous
 62
     7
100
AcDbLine
 10
99.643092
 20
110.513554
 30
0.0
 11
99.643092
 21
111.513554
 31
0.0
  0
LINE
  5
23F
100
AcDbEntity
  8
14
370
     9
  6
Continuous
 62
     7
100
AcDbLine
 10
99.643092
 20
113.138554
 30
0.0
 11
99.643092
 21
114.138554
 31
0.0
  0
LINE
  5
240
100
AcDbEntity
  8
14
370
     9
  6
Continuous
 62
     7
100
AcDbLine
 10
99.643092
 20
115.763554
 30
0.0
 11
99.643092
 21
116.763554
 31
0.0
  0
LINE
  5
241
100
AcDbEntity
  8
14
370
     9
  6
Continuous
 62
     7
100
AcDbLine
 10
99.643092
 20
118.388554
 30
0.0
 11
99.643092
 21
119.388554
 31
0.0
  0
LINE
  5
242
100
AcDbEntity
  8
14
370
     9
  6
Continuous
 62
     7
100
AcDbLine
 10
99.643092
 20
121.013554
 30
0.0
 11
99.643092
 21
122.013554
 31
0.0
  0
LINE
  5
243
100
AcDbEntity
  8
14
370
     9
  6
Continuous
 62
     7
100
AcDbLine
 10
99.643092
 20
123.638554
 30
0.0
 11
99.643092
 21
124.638554
 31
0.0
  0
LINE
  5
244
100
AcDbEntity
  8
14
370
     9
  6
Continuous
 62
     7
100
AcDbLine
 10
99.643092
 20
126.263554
 30
0.0
 11
99.643092
 21
127.263554
 31
0.0
  0
LINE
  5
245
100
AcDbEntity
  8
14
370
     9
  6
Continuous
 62
     7
100
AcDbLine
 10
99.643092
 20
128.888554
 30
0.0
 11
99.643092
 21
129.888554
 31
0.0
  0
LINE
  5
246
100
AcDbEntity
  8
14
370
     9
  6
Continuous
 62
     7
100
AcDbLine
 10
110.643092
 20
128.888554
 30
0.0
 11
99.643092
 21
128.888554
 31
0.0
  0
LINE
  5
247
100
AcDbEntity
  8
14
370
     9
  6
Continuous
 62
     7
100
AcDbLine
 10
110.643092
 20
110.513554
 30
0.0
 11
99.643092
 21
110.513554
 31
0.0
  0
LINE
  5
248
100
AcDbEntity
  8
14
370
     9
  6
Continuous
 62
     7
100
AcDbLine
 10
110.643092
 20
111.513554
 30
0.0
 11
99.643092
 21
111.513554
 31
0.0
  0
LINE
  5
249
100
AcDbEntity
  8
14
370
     9
  6
Continuous
 62
     7
100
AcDbLine
 10
110.643092
 20
113.138554
 30
0.0
 11
99.643092
 21
113.138554
 31
0.0
  0
LINE
  5
24A
100
AcDbEntity
  8
14
370
     9
  6
Continuous
 62
     7
100
AcDbLine
 10
110.643092
 20
114.138554
 30
0.0
 11
99.643092
 21
114.138554
 31
0.0
  0
LINE
  5
24B
100
AcDbEntity
  8
14
370
     9
  6
Continuous
 62
     7
100
AcDbLine
 10
110.643092
 20
115.763554
 30
0.0
 11
99.643092
 21
115.763554
 31
0.0
  0
LINE
  5
24C
100
AcDbEntity
  8
14
370
     9
  6
Continuous
 62
     7
100
AcDbLine
 10
110.643092
 20
116.763554
 30
0.0
 11
99.643092
 21
116.763554
 31
0.0
  0
LINE
  5
24D
100
AcDbEntity
  8
14
370
     9
  6
Continuous
 62
     7
100
AcDbLine
 10
110.643092
 20
118.388554
 30
0.0
 11
99.643092
 21
118.388554
 31
0.0
  0
LINE
  5
24E
100
AcDbEntity
  8
14
370
     9
  6
Continuous
 62
     7
100
AcDbLine
 10
110.643092
 20
119.388554
 30
0.0
 11
99.643092
 21
119.388554
 31
0.0
  0
LINE
  5
24F
100
AcDbEntity
  8
14
370
     9
  6
Continuous
 62
     7
100
AcDbLine
 10
110.643092
 20
121.013554
 30
0.0
 11
99.643092
 21
121.013554
 31
0.0
  0
LINE
  5
250
100
AcDbEntity
  8
14
370
     9
  6
Continuous
 62
     7
100
AcDbLine
 10
110.643092
 20
122.013554
 30
0.0
 11
99.643092
 21
122.013554
 31
0.0
  0
LINE
  5
251
100
AcDbEntity
  8
14
370
     9
  6
Continuous
 62
     7
100
AcDbLine
 10
110.643092
 20
123.638554
 30
0.0
 11
99.643092
 21
123.638554
 31
0.0
  0
LINE
  5
252
100
AcDbEntity
  8
14
370
     9
  6
Continuous
 62
     7
100
AcDbLine
 10
110.643092
 20
124.638554
 30
0.0
 11
99.643092
 21
124.638554
 31
0.0
  0
LINE
  5
253
100
AcDbEntity
  8
14
370
     9
  6
Continuous
 62
     7
100
AcDbLine
 10
110.643092
 20
126.263554
 30
0.0
 11
99.643092
 21
126.263554
 31
0.0
  0
LINE
  5
254
100
AcDbEntity
  8
14
370
     9
  6
Continuous
 62
     7
100
AcDbLine
 10
110.643092
 20
127.263554
 30
0.0
 11
99.643092
 21
127.263554
 31
0.0
  0
LINE
  5
255
100
AcDbEntity
  8
14
370
     9
  6
Continuous
 62
     7
100
AcDbLine
 10
99.643092
 20
107.888554
 30
0.0
 11
110.643092
 21
107.888554
 31
0.0
  0
LINE
  5
256
100
AcDbEntity
  8
14
370
     9
  6
Continuous
 62
     7
100
AcDbLine
 10
101.643092
 20
87.888554
 30
0.0
 11
101.643092
 21
89.513554
 31
0.0
  0
LINE
  5
257
100
AcDbEntity
  8
14
370
     9
  6
Continuous
 62
     7
100
AcDbLine
 10
101.643092
 20
90.513554
 30
0.0
 11
101.643092
 21
92.138554
 31
0.0
  0
LINE
  5
258
100
AcDbEntity
  8
14
370
     9
  6
Continuous
 62
     7
100
AcDbLine
 10
101.643092
 20
93.138554
 30
0.0
 11
101.643092
 21
94.763554
 31
0.0
  0
LINE
  5
259
100
AcDbEntity
  8
14
370
     9
  6
Continuous
 62
     7
100
AcDbLine
 10
101.643092
 20
95.763554
 30
0.0
 11
101.643092
 21
97.388554
 31
0.0
  0
LINE
  5
25A
100
AcDbEntity
  8
14
370
     9
  6
Continuous
 62
     7
100
AcDbLine
 10
101.643092
 20
98.388554
 30
0.0
 11
101.643092
 21
100.013554
 31
0.0
  0
LINE
  5
25B
100
AcDbEntity
  8
14
370
     9
  6
Continuous
 62
     7
100
AcDbLine
 10
101.643092
 20
101.013554
 30
0.0
 11
101.643092
 21
102.638554
 31
0.0
  0
LINE
  5
25C
100
AcDbEntity
  8
14
370
     9
  6
Continuous
 62
     7
100
AcDbLine
 10
101.643092
 20
103.638554
 30
0.0
 11
101.643092
 21
105.263554
 31
0.0
  0
LINE
  5
25D
100
AcDbEntity
  8
14
370
     9
  6
Continuous
 62
     7
100
AcDbLine
 10
101.643092
 20
106.263554
 30
0.0
 11
101.643092
 21
107.888554
 31
0.0
  0
LINE
  5
25E
100
AcDbEntity
  8
14
370
     9
  6
Continuous
 62
     7
100
AcDbLine
 10
110.643092
 20
89.513554
 30
0.0
 11
110.643092
 21
87.888554
 31
0.0
  0
LINE
  5
25F
100
AcDbEntity
  8
14
370
     9
  6
Continuous
 62
     7
100
AcDbLine
 10
110.643092
 20
92.138554
 30
0.0
 11
110.643092
 21
90.513554
 31
0.0
  0
LINE
  5
260
100
AcDbEntity
  8
14
370
     9
  6
Continuous
 62
     7
100
AcDbLine
 10
110.643092
 20
94.763554
 30
0.0
 11
110.643092
 21
93.138554
 31
0.0
  0
LINE
  5
261
100
AcDbEntity
  8
14
370
     9
  6
Continuous
 62
     7
100
AcDbLine
 10
110.643092
 20
97.388554
 30
0.0
 11
110.643092
 21
95.763554
 31
0.0
  0
LINE
  5
262
100
AcDbEntity
  8
14
370
     9
  6
Continuous
 62
     7
100
AcDbLine
 10
110.643092
 20
100.013554
 30
0.0
 11
110.643092
 21
98.388554
 31
0.0
  0
LINE
  5
263
100
AcDbEntity
  8
14
370
     9
  6
Continuous
 62
     7
100
AcDbLine
 10
110.643092
 20
102.638554
 30
0.0
 11
110.643092
 21
101.013554
 31
0.0
  0
LINE
  5
264
100
AcDbEntity
  8
14
370
     9
  6
Continuous
 62
     7
100
AcDbLine
 10
110.643092
 20
105.263554
 30
0.0
 11
110.643092
 21
103.638554
 31
0.0
  0
LINE
  5
265
100
AcDbEntity
  8
14
370
     9
  6
Continuous
 62
     7
100
AcDbLine
 10
99.643092
 20
106.263554
 30
0.0
 11
99.643092
 21
105.263554
 31
0.0
  0
LINE
  5
266
100
AcDbEntity
  8
14
370
     9
  6
Continuous
 62
     7
100
AcDbLine
 10
99.643092
 20
103.638554
 30
0.0
 11
99.643092
 21
102.638554
 31
0.0
  0
LINE
  5
267
100
AcDbEntity
  8
14
370
     9
  6
Continuous
 62
     7
100
AcDbLine
 10
99.643092
 20
101.013554
 30
0.0
 11
99.643092
 21
100.013554
 31
0.0
  0
LINE
  5
268
100
AcDbEntity
  8
14
370
     9
  6
Continuous
 62
     7
100
AcDbLine
 10
99.643092
 20
98.388554
 30
0.0
 11
99.643092
 21
97.388554
 31
0.0
  0
LINE
  5
269
100
AcDbEntity
  8
14
370
     9
  6
Continuous
 62
     7
100
AcDbLine
 10
99.643092
 20
95.763554
 30
0.0
 11
99.643092
 21
94.763554
 31
0.0
  0
LINE
  5
26A
100
AcDbEntity
  8
14
370
     9
  6
Continuous
 62
     7
100
AcDbLine
 10
99.643092
 20
93.138554
 30
0.0
 11
99.643092
 21
92.138554
 31
0.0
  0
LINE
  5
26B
100
AcDbEntity
  8
14
370
     9
  6
Continuous
 62
     7
100
AcDbLine
 10
99.643092
 20
90.513554
 30
0.0
 11
99.643092
 21
89.513554
 31
0.0
  0
LINE
  5
26C
100
AcDbEntity
  8
14
370
     9
  6
Continuous
 62
     7
100
AcDbLine
 10
99.643092
 20
87.888554
 30
0.0
 11
99.643092
 21
86.888554
 31
0.0
  0
LINE
  5
26D
100
AcDbEntity
  8
14
370
     9
  6
Continuous
 62
     7
100
AcDbLine
 10
110.643092
 20
87.888554
 30
0.0
 11
99.643092
 21
87.888554
 31
0.0
  0
LINE
  5
26E
100
AcDbEntity
  8
14
370
     9
  6
Continuous
 62
     7
100
AcDbLine
 10
110.643092
 20
106.263554
 30
0.0
 11
99.643092
 21
106.263554
 31
0.0
  0
LINE
  5
26F
100
AcDbEntity
  8
14
370
     9
  6
Continuous
 62
     7
100
AcDbLine
 10
110.643092
 20
105.263554
 30
0.0
 11
99.643092
 21
105.263554
 31
0.0
  0
LINE
  5
270
100
AcDbEntity
  8
14
370
     9
  6
Continuous
 62
     7
100
AcDbLine
 10
110.643092
 20
103.638554
 30
0.0
 11
99.643092
 21
103.638554
 31
0.0
  0
LINE
  5
271
100
AcDbEntity
  8
14
370
     9
  6
Continuous
 62
     7
100
AcDbLine
 10
110.643092
 20
102.638554
 30
0.0
 11
99.643092
 21
102.638554
 31
0.0
  0
LINE
  5
272
100
AcDbEntity
  8
14
370
     9
  6
Continuous
 62
     7
100
AcDbLine
 10
110.643092
 20
101.013554
 30
0.0
 11
99.643092
 21
101.013554
 31
0.0
  0
LINE
  5
273
100
AcDbEntity
  8
14
370
     9
  6
Continuous
 62
     7
100
AcDbLine
 10
110.643092
 20
100.013554
 30
0.0
 11
99.643092
 21
100.013554
 31
0.0
  0
LINE
  5
274
100
AcDbEntity
  8
14
370
     9
  6
Continuous
 62
     7
100
AcDbLine
 10
110.643092
 20
98.388554
 30
0.0
 11
99.643092
 21
98.388554
 31
0.0
  0
LINE
  5
275
100
AcDbEntity
  8
14
370
     9
  6
Continuous
 62
     7
100
AcDbLine
 10
110.643092
 20
97.388554
 30
0.0
 11
99.643092
 21
97.388554
 31
0.0
  0
LINE
  5
276
100
AcDbEntity
  8
14
370
     9
  6
Continuous
 62
     7
100
AcDbLine
 10
110.643092
 20
95.763554
 30
0.0
 11
99.643092
 21
95.763554
 31
0.0
  0
LINE
  5
277
100
AcDbEntity
  8
14
370
     9
  6
Continuous
 62
     7
100
AcDbLine
 10
110.643092
 20
94.763554
 30
0.0
 11
99.643092
 21
94.763554
 31
0.0
  0
LINE
  5
278
100
AcDbEntity
  8
14
370
     9
  6
Continuous
 62
     7
100
AcDbLine
 10
110.643092
 20
93.138554
 30
0.0
 11
99.643092
 21
93.138554
 31
0.0
  0
LINE
  5
279
100
AcDbEntity
  8
14
370
     9
  6
Continuous
 62
     7
100
AcDbLine
 10
110.643092
 20
92.138554
 30
0.0
 11
99.643092
 21
92.138554
 31
0.0
  0
LINE
  5
27A
100
AcDbEntity
  8
14
370
     9
  6
Continuous
 62
     7
100
AcDbLine
 10
110.643092
 20
90.513554
 30
0.0
 11
99.643092
 21
90.513554
 31
0.0
  0
LINE
  5
27B
100
AcDbEntity
  8
14
370
     9
  6
Continuous
 62
     7
100
AcDbLine
 10
110.643092
 20
89.513554
 30
0.0
 11
99.643092
 21
89.513554
 31
0.0
  0
LINE
  5
27C
100
AcDbEntity
  8
14
370
     9
  6
Continuous
 62
     7
100
AcDbLine
 10
99.643092
 20
107.888554
 30
0.0
 11
99.643092
 21
108.888554
 31
0.0
  0
LINE
  5
27D
100
AcDbEntity
  8
14
370
     9
  6
Continuous
 62
     7
100
AcDbLine
 10
110.643092
 20
107.888554
 30
0.0
 11
110.643092
 21
106.263554
 31
0.0
  0
LINE
  5
27E
100
AcDbEntity
  8
14
370
     9
  6
Continuous
 62
     7
100
AcDbLine
 10
110.643092
 20
108.888554
 30
0.0
 11
110.643092
 21
110.513554
 31
0.0
  0
ENDBLK
  5
27F
100
AcDbEntity
  8
0
100
AcDbBlockEnd
  0
BLOCK
  5
282
100
AcDbEntity
  8
0
370
     9
  6
Continuous
 62
     7
100
AcDbBlockBegin
  2
*G22
 70
     0
 10
0.0
 20
0.0
 30
0.0
  3
*G22
  1

  0
LINE
  5
283
100
AcDbEntity
  8
14
370
    30
  6
Continuous
 62
     7
100
AcDbLine
 10
178.643092
 20
35.410653
 30
0.0
 11
190.643092
 21
35.910653
 31
0.0
  0
LINE
  5
284
100
AcDbEntity
  8
14
370
    30
  6
Continuous
 62
     7
100
AcDbLine
 10
190.643092
 20
35.910653
 30
0.0
 11
190.643092
 21
42.410653
 31
0.0
  0
LINE
  5
285
100
AcDbEntity
  8
14
370
    30
  6
Continuous
 62
     7
100
AcDbLine
 10
178.643092
 20
49.410653
 30
0.0
 11
190.643092
 21
48.910653
 31
0.0
  0
LINE
  5
286
100
AcDbEntity
  8
14
370
    30
  6
Continuous
 62
     7
100
AcDbLine
 10
190.643092
 20
48.910653
 30
0.0
 11
190.643092
 21
42.410653
 31
0.0
  0
LINE
  5
287
100
AcDbEntity
  8
14
370
    30
  6
Continuous
 62
     7
100
AcDbLine
 10
168.643092
 20
50.410653
 30
0.0
 11
178.643092
 21
50.410653
 31
0.0
  0
LINE
  5
288
100
AcDbEntity
  8
14
370
    30
  6
Continuous
 62
     7
100
AcDbLine
 10
178.643092
 20
50.410653
 30
0.0
 11
178.643092
 21
34.410653
 31
0.0
  0
LINE
  5
289
100
AcDbEntity
  8
14
370
    30
  6
Continuous
 62
     7
100
AcDbLine
 10
178.643092
 20
34.410653
 30
0.0
 11
168.643092
 21
34.410653
 31
0.0
  0
LINE
  5
28A
100
AcDbEntity
  8
14
370
    30
  6
Continuous
 62
     7
100
AcDbLine
 10
99.643092
 20
41.310653
 30
0.0
 11
130.643092
 21
41.310653
 31
0.0
  0
LINE
  5
28B
100
AcDbEntity
  8
14
370
    30
  6
Continuous
 62
     7
100
AcDbLine
 10
99.643092
 20
41.310653
 30
0.0
 11
99.643092
 21
34.810653
 31
0.0
  0
LINE
  5
28C
100
AcDbEntity
  8
14
370
    30
  6
Continuous
 62
     7
100
AcDbLine
 10
99.643092
 20
34.810653
 30
0.0
 11
110.643092
 21
34.810653
 31
0.0
  0
LINE
  5
28D
100
AcDbEntity
  8
14
370
    30
  6
Continuous
 62
     7
100
AcDbLine
 10
110.643092
 20
34.810653
 30
0.0
 11
112.643092
 21
33.710653
 31
0.0
  0
LINE
  5
28E
100
AcDbEntity
  8
14
370
    30
  6
Continuous
 62
     7
100
AcDbLine
 10
168.643092
 20
50.410653
 30
0.0
 11
168.643092
 21
34.410653
 31
0.0
  0
LINE
  5
28F
100
AcDbEntity
  8
14
370
    30
  6
Continuous
 62
     7
100
AcDbLine
 10
112.643092
 20
33.710653
 30
0.0
 11
167.943092
 21
33.710653
 31
0.0
  0
LINE
  5
290
100
AcDbEntity
  8
14
370
    30
  6
Continuous
 62
     7
100
AcDbLine
 10
168.643092
 20
34.410653
 30
0.0
 11
167.943092
 21
33.710653
 31
0.0
  0
LINE
  5
291
100
AcDbEntity
  8
14
370
    30
  6
Continuous
 62
     7
100
AcDbLine
 10
135.293092
 20
41.256996
 30
0.0
 11
135.293092
 21
42.210653
 31
0.0
  0
LINE
  5
292
100
AcDbEntity
  8
14
370
    30
  6
Continuous
 62
     7
100
AcDbLine
 10
135.293092
 20
42.210653
 30
0.0
 11
145.993092
 21
42.210653
 31
0.0
  0
LINE
  5
293
100
AcDbEntity
  8
14
370
    30
  6
Continuous
 62
     7
100
AcDbLine
 10
153.643092
 20
42.710653
 30
0.0
 11
130.643092
 21
41.310653
 31
0.0
  0
LINE
  5
294
100
AcDbEntity
  8
14
370
    30
  6
Continuous
 62
     7
100
AcDbLine
 10
168.643092
 20
50.410653
 30
0.0
 11
140.643092
 21
42.210653
 31
0.0
  0
LINE
  5
295
100
AcDbEntity
  8
14
370
    30
  6
Continuous
 62
     7
100
AcDbLine
 10
153.643092
 20
42.710653
 30
0.0
 11
167.643092
 21
48.210653
 31
0.0
  0
LINE
  5
296
100
AcDbEntity
  8
14
370
    30
  6
Continuous
 62
     7
100
AcDbLine
 10
167.643092
 20
48.210653
 30
0.0
 11
168.643092
 21
50.410653
 31
0.0
  0
LINE
  5
297
100
AcDbEntity
  8
14
370
     9
  6
CENTER
 62
     1
100
AcDbLine
 10
184.143092
 20
45.498259
 30
0.0
 11
184.143092
 21
39.371115
 31
0.0
  0
LINE
  5
298
100
AcDbEntity
  8
14
370
     9
  6
CENTER
 62
     1
100
AcDbLine
 10
161.545574
 20
42.410653
 30
0.0
 11
195.251834
 21
42.410653
 31
0.0
  0
LINE
  5
299
100
AcDbEntity
  8
14
370
     9
  6
CENTER
 62
     1
100
AcDbLine
 10
140.643092
 20
46.788379
 30
0.0
 11
140.643092
 21
28.032961
 31
0.0
  0
LINE
  5
29A
100
AcDbEntity
  8
14
370
     9
  6
CENTER
 62
     1
100
AcDbLine
 10
92.578622
 20
38.060653
 30
0.0
 11
120.04959
 21
38.060653
 31
0.0
  0
ENDBLK
  5
29B
100
AcDbEntity
  8
0
100
AcDbBlockEnd
  0
BLOCK
  5
29E
100
AcDbEntity
  8
16
370
     9
  6
Continuous
 62
   174
100
AcDbBlockBegin
  2
*D23
 70
     0
 10
0.0
 20
0.0
 30
0.0
  3
*D23
  1

  0
LINE
  5
29F
100
AcDbEntity
  8
16
370
     9
  6
Continuous
 62
   174
100
AcDbLine
 10
81.284153
 20
49.310653
 30
0.0
 11
81.284153
 21
26.810653
 31
0.0
  0
LINE
  5
2A0
100
AcDbEntity
  8
16
370
     9
  6
Continuous
 62
   174
100
AcDbLine
 10
80.284153
 20
41.310653
 30
0.0
 11
97.643092
 21
41.310653
 31
0.0
  0
LINE
  5
2A1
100
AcDbEntity
  8
16
370
     9
  6
Continuous
 62
   174
100
AcDbLine
 10
80.284153
 20
34.810653
 30
0.0
 11
97.643092
 21
34.810653
 31
0.0
  0
LINE
  5
2A2
100
AcDbEntity
  8
16
370
     9
  6
Continuous
 62
   174
100
AcDbLine
 10
81.284153
 20
41.310653
 30
0.0
 11
80.507696
 21
44.208431
 31
0.0
  0
LINE
  5
2A3
100
AcDbEntity
  8
16
370
     9
  6
Continuous
 62
   174
100
AcDbLine
 10
81.284153
 20
41.310653
 30
0.0
 11
82.06061
 21
44.208431
 31
0.0
  0
LINE
  5
2A4
100
AcDbEntity
  8
16
370
     9
  6
Continuous
 62
   174
100
AcDbLine
 10
81.284153
 20
34.810653
 30
0.0
 11
82.06061
 21
31.912876
 31
0.0
  0
LINE
  5
2A5
100
AcDbEntity
  8
16
370
     9
  6
Continuous
 62
   174
100
AcDbLine
 10
81.284153
 20
34.810653
 30
0.0
 11
80.507696
 21
31.912876
 31
0.0
  0
TEXT
  5
2A6
100
AcDbEntity
  8
16
370
     9
  6
Continuous
 62
   174
100
AcDbText
 10
81.284153
 20
34.310653
 30
0.0
 40
5.0
  1
6.5
 50
90.0
 41
0.576923
 11
81.284153
 21
34.310653
 31
0.0
100
AcDbText
 73
     1
  0
ENDBLK
  5
2A7
100
AcDbEntity
  8
16
370
     9
  6
Continuous
 62
   174
100
AcDbBlockEnd
  0
BLOCK
  5
2AA
100
AcDbEntity
  8
16
370
     9
  6
Continuous
 62
   174
100
AcDbBlockBegin
  2
*D24
 70
     0
 10
0.0
 20
0.0
 30
0.0
  3
*D24
  1

  0
LINE
  5
2AB
100
AcDbEntity
  8
16
370
     9
  6
Continuous
 62
   174
100
AcDbLine
 10
211.721311
 20
21.028952
 30
0.0
 11
211.721311
 21
50.410653
 31
0.0
  0
LINE
  5
2AC
100
AcDbEntity
  8
16
370
     9
  6
Continuous
 62
   174
100
AcDbLine
 10
212.721311
 20
38.060653
 30
0.0
 11
122.04959
 21
38.060653
 31
0.0
  0
LINE
  5
2AD
100
AcDbEntity
  8
16
370
     9
  6
Continuous
 62
   174
100
AcDbLine
 10
212.721311
 20
42.410653
 30
0.0
 11
197.251834
 21
42.410653
 31
0.0
  0
LINE
  5
2AE
100
AcDbEntity
  8
16
370
     9
  6
Continuous
 62
   174
100
AcDbLine
 10
211.721311
 20
38.060653
 30
0.0
 11
212.497769
 21
35.162876
 31
0.0
  0
LINE
  5
2AF
100
AcDbEntity
  8
16
370
     9
  6
Continuous
 62
   174
100
AcDbLine
 10
211.721311
 20
38.060653
 30
0.0
 11
210.944854
 21
35.162876
 31
0.0
  0
LINE
  5
2B0
100
AcDbEntity
  8
16
370
     9
  6
Continuous
 62
   174
100
AcDbLine
 10
211.721311
 20
42.410653
 30
0.0
 11
210.944854
 21
45.308431
 31
0.0
  0
LINE
  5
2B1
100
AcDbEntity
  8
16
370
     9
  6
Continuous
 62
   174
100
AcDbLine
 10
211.721311
 20
42.410653
 30
0.0
 11
212.497769
 21
45.308431
 31
0.0
  0
TEXT
  5
2B2
100
AcDbEntity
  8
16
370
     9
  6
Continuous
 62
   174
100
AcDbText
 10
211.721311
 20
22.278952
 30
0.0
 40
5.0
  1
4.35
 50
90.0
 41
0.555556
 11
211.721311
 21
22.278952
 31
0.0
100
AcDbText
 73
     1
  0
ENDBLK
  5
2B3
100
AcDbEntity
  8
16
370
     9
  6
Continuous
 62
   174
100
AcDbBlockEnd
  0
BLOCK
  5
2B6
100
AcDbEntity
  8
16
370
     9
  6
Continuous
 62
   174
100
AcDbBlockBegin
  2
*D25
 70
     0
 10
0.0
 20
0.0
 30
0.0
  3
*D25
  1

  0
LINE
  5
2B7
100
AcDbEntity
  8
16
370
     9
  6
Continuous
 62
   174
100
AcDbLine
 10
99.643092
 20
145.666931
 30
0.0
 11
184.143092
 21
145.666931
 31
0.0
  0
LINE
  5
2B8
100
AcDbEntity
  8
16
370
     9
  6
Continuous
 62
   174
100
AcDbLine
 10
99.643092
 20
146.666931
 30
0.0
 11
99.643092
 21
131.888554
 31
0.0
  0
LINE
  5
2B9
100
AcDbEntity
  8
16
370
     9
  6
Continuous
 62
   174
100
AcDbLine
 10
184.143092
 20
146.666931
 30
0.0
 11
184.143092
 21
113.476159
 31
0.0
  0
LINE
  5
2BA
100
AcDbEntity
  8
16
370
     9
  6
Continuous
 62
   174
100
AcDbLine
 10
99.643092
 20
145.666931
 30
0.0
 11
102.54087
 21
146.443388
 31
0.0
  0
LINE
  5
2BB
100
AcDbEntity
  8
16
370
     9
  6
Continuous
 62
   174
100
AcDbLine
 10
99.643092
 20
145.666931
 30
0.0
 11
102.54087
 21
144.890473
 31
0.0
  0
LINE
  5
2BC
100
AcDbEntity
  8
16
370
     9
  6
Continuous
 62
   174
100
AcDbLine
 10
184.143092
 20
145.666931
 30
0.0
 11
181.245315
 21
144.890473
 31
0.0
  0
LINE
  5
2BD
100
AcDbEntity
  8
16
370
     9
  6
Continuous
 62
   174
100
AcDbLine
 10
184.143092
 20
145.666931
 30
0.0
 11
181.245315
 21
146.443388
 31
0.0
  0
TEXT
  5
2BE
100
AcDbEntity
  8
16
370
     9
  6
Continuous
 62
   174
100
AcDbText
 10
134.393092
 20
145.666931
 30
0.0
 40
5.0
  1
(84.5)
 41
0.535714
 11
134.393092
 21
145.666931
 31
0.0
100
AcDbText
 73
     1
  0
ENDBLK
  5
2BF
100
AcDbEntity
  8
16
370
     9
  6
Continuous
 62
   174
100
AcDbBlockEnd
  0
BLOCK
  5
2C2
100
AcDbEntity
  8
16
370
     9
  6
Continuous
 62
   174
100
AcDbBlockBegin
  2
*D26
 70
     0
 10
0.0
 20
0.0
 30
0.0
  3
*D26
  1

  0
LINE
  5
2C3
100
AcDbEntity
  8
16
370
     9
  6
Continuous
 62
   174
100
AcDbLine
 10
69.234973
 20
50.410653
 30
0.0
 11
69.234973
 21
33.710653
 31
0.0
  0
LINE
  5
2C4
100
AcDbEntity
  8
16
370
     9
  6
Continuous
 62
   174
100
AcDbLine
 10
68.234973
 20
50.410653
 30
0.0
 11
166.643092
 21
50.410653
 31
0.0
  0
LINE
  5
2C5
100
AcDbEntity
  8
16
370
     9
  6
Continuous
 62
   174
100
AcDbLine
 10
68.234973
 20
33.710653
 30
0.0
 11
110.643092
 21
33.710653
 31
0.0
  0
LINE
  5
2C6
100
AcDbEntity
  8
16
370
     9
  6
Continuous
 62
   174
100
AcDbLine
 10
69.234973
 20
50.410653
 30
0.0
 11
70.01143
 21
47.512876
 31
0.0
  0
LINE
  5
2C7
100
AcDbEntity
  8
16
370
     9
  6
Continuous
 62
   174
100
AcDbLine
 10
69.234973
 20
50.410653
 30
0.0
 11
68.458516
 21
47.512876
 31
0.0
  0
LINE
  5
2C8
100
AcDbEntity
  8
16
370
     9
  6
Continuous
 62
   174
100
AcDbLine
 10
69.234973
 20
33.710653
 30
0.0
 11
68.458516
 21
36.608431
 31
0.0
  0
LINE
  5
2C9
100
AcDbEntity
  8
16
370
     9
  6
Continuous
 62
   174
100
AcDbLine
 10
69.234973
 20
33.710653
 30
0.0
 11
70.01143
 21
36.608431
 31
0.0
  0
TEXT
  5
2CA
100
AcDbEntity
  8
16
370
     9
  6
Continuous
 62
   174
100
AcDbText
 10
69.234973
 20
39.560653
 30
0.0
 40
5.0
  1
17
 50
90.0
 41
0.5
 11
69.234973
 21
39.560653
 31
0.0
100
AcDbText
 73
     1
  0
ENDBLK
  5
2CB
100
AcDbEntity
  8
16
370
     9
  6
Continuous
 62
   174
100
AcDbBlockEnd
  0
BLOCK
  5
2DE
100
AcDbEntity
  8
0
370
     9
  6
Continuous
 62
     7
100
AcDbBlockBegin
  2
*G27
 70
     0
 10
0.0
 20
0.0
 30
0.0
  3
*G27
  1

  0
LINE
  5
2DF
100
AcDbEntity
  8
14
370
     9
  6
CENTER
 62
     1
100
AcDbLine
 10
94.034255
 20
127.999581
 30
0.0
 11
102.975511
 21
127.999581
 31
0.0
  0
ENDBLK
  5
2E0
100
AcDbEntity
  8
0
100
AcDbBlockEnd
  0
BLOCK
  5
2E3
100
AcDbEntity
  8
0
370
     9
  6
Continuous
 62
     7
100
AcDbBlockBegin
  2
*G28
 70
     0
 10
0.0
 20
0.0
 30
0.0
  3
*G28
  1

  0
LINE
  5
2E4
100
AcDbEntity
  8
14
370
     9
  6
CENTER
 62
     1
100
AcDbLine
 10
94.034255
 20
88.624581
 30
0.0
 11
102.975511
 21
88.624581
 31
0.0
  0
ENDBLK
  5
2E5
100
AcDbEntity
  8
0
100
AcDbBlockEnd
  0
BLOCK
  5
2E8
100
AcDbEntity
  8
16
370
     9
  6
Continuous
 62
   174
100
AcDbBlockBegin
  2
*D29
 70
     0
 10
0.0
 20
0.0
 30
0.0
  3
*D29
  1

  0
LINE
  5
2E9
100
AcDbEntity
  8
16
370
     9
  6
Continuous
 62
   174
100
AcDbLine
 10
85.826503
 20
88.624581
 30
0.0
 11
85.826503
 21
127.999581
 31
0.0
  0
LINE
  5
2EA
100
AcDbEntity
  8
16
370
     9
  6
Continuous
 62
   174
100
AcDbLine
 10
84.826503
 20
88.624581
 30
0.0
 11
92.034255
 21
88.624581
 31
0.0
  0
LINE
  5
2EB
100
AcDbEntity
  8
16
370
     9
  6
Continuous
 62
   174
100
AcDbLine
 10
84.826503
 20
127.999581
 30
0.0
 11
92.034255
 21
127.999581
 31
0.0
  0
LINE
  5
2EC
100
AcDbEntity
  8
16
370
     9
  6
Continuous
 62
   174
100
AcDbLine
 10
85.826503
 20
88.624581
 30
0.0
 11
85.050046
 21
91.522358
 31
0.0
  0
LINE
  5
2ED
100
AcDbEntity
  8
16
370
     9
  6
Continuous
 62
   174
100
AcDbLine
 10
85.826503
 20
88.624581
 30
0.0
 11
86.60296
 21
91.522358
 31
0.0
  0
LINE
  5
2EE
100
AcDbEntity
  8
16
370
     9
  6
Continuous
 62
   174
100
AcDbLine
 10
85.826503
 20
127.999581
 30
0.0
 11
86.60296
 21
125.101803
 31
0.0
  0
LINE
  5
2EF
100
AcDbEntity
  8
16
370
     9
  6
Continuous
 62
   174
100
AcDbLine
 10
85.826503
 20
127.999581
 30
0.0
 11
85.050046
 21
125.101803
 31
0.0
  0
TEXT
  5
2F0
100
AcDbEntity
  8
16
370
     9
  6
Continuous
 62
   174
100
AcDbText
 10
85.826503
 20
105.812081
 30
0.0
 40
5.0
  1
40
 50
90.0
 41
0.5
 11
85.826503
 21
105.812081
 31
0.0
100
AcDbText
 73
     1
  0
ENDBLK
  5
2F1
100
AcDbEntity
  8
16
370
     9
  6
Continuous
 62
   174
100
AcDbBlockEnd
  0
BLOCK
  5
2F5
100
AcDbEntity
  8
16
370
     9
  6
Continuous
 62
   174
100
AcDbBlockBegin
  2
*D30
 70
     0
 10
0.0
 20
0.0
 30
0.0
  3
*D30
  1

  0
LINE
  5
2F6
100
AcDbEntity
  8
16
370
     9
  6
Continuous
 62
   174
100
AcDbLine
 10
363.743169
 20
147.650273
 30
0.0
 11
318.743169
 21
147.650273
 31
0.0
  0
LINE
  5
2F7
100
AcDbEntity
  8
16
370
     9
  6
Continuous
 62
   174
100
AcDbLine
 10
363.743169
 20
148.650273
 30
0.0
 11
363.743169
 21
124.590102
 31
0.0
  0
LINE
  5
2F8
100
AcDbEntity
  8
16
370
     9
  6
Continuous
 62
   174
100
AcDbLine
 10
318.743169
 20
148.650273
 30
0.0
 11
318.743169
 21
136.494536
 31
0.0
  0
LINE
  5
2F9
100
AcDbEntity
  8
16
370
     9
  6
Continuous
 62
   174
100
AcDbLine
 10
363.743169
 20
147.650273
 30
0.0
 11
360.845392
 21
146.873816
 31
0.0
  0
LINE
  5
2FA
100
AcDbEntity
  8
16
370
     9
  6
Continuous
 62
   174
100
AcDbLine
 10
363.743169
 20
147.650273
 30
0.0
 11
360.845392
 21
148.42673
 31
0.0
  0
LINE
  5
2FB
100
AcDbEntity
  8
16
370
     9
  6
Continuous
 62
   174
100
AcDbLine
 10
318.743169
 20
147.650273
 30
0.0
 11
321.640947
 21
148.42673
 31
0.0
  0
LINE
  5
2FC
100
AcDbEntity
  8
16
370
     9
  6
Continuous
 62
   174
100
AcDbLine
 10
318.743169
 20
147.650273
 30
0.0
 11
321.640947
 21
146.873816
 31
0.0
  0
TEXT
  5
2FD
100
AcDbEntity
  8
16
370
     9
  6
Continuous
 62
   174
100
AcDbText
 10
336.243169
 20
147.650273
 30
0.0
 40
5.0
  1
(45)
 41
0.5
 11
336.243169
 21
147.650273
 31
0.0
100
AcDbText
 73
     1
  0
ENDBLK
  5
2FE
100
AcDbEntity
  8
16
370
     9
  6
Continuous
 62
   174
100
AcDbBlockEnd
  0
BLOCK
  5
31B
100
AcDbEntity
  8
0
370
     9
  6
Continuous
 62
     7
100
AcDbBlockBegin
  2
*G31
 70
     0
 10
0.0
 20
0.0
 30
0.0
  3
*G31
  1

  0
LINE
  5
31C
100
AcDbEntity
  8
14
370
    30
  6
Continuous
 62
     7
100
AcDbLine
 10
261.104095
 20
120.494272
 30
0.0
 11
261.104095
 21
107.994272
 31
0.0
  0
LINE
  5
31D
100
AcDbEntity
  8
14
370
    30
  6
Continuous
 62
     7
100
AcDbLine
 10
261.104095
 20
107.994272
 30
0.0
 11
260.604095
 21
107.994272
 31
0.0
  0
LINE
  5
31E
100
AcDbEntity
  8
14
370
    30
  6
Continuous
 62
     7
100
AcDbLine
 10
262.604095
 20
120.494272
 30
0.0
 11
262.604095
 21
106.494272
 31
0.0
  0
LINE
  5
31F
100
AcDbEntity
  8
14
370
    30
  6
Continuous
 62
     7
100
AcDbLine
 10
262.604095
 20
106.494272
 30
0.0
 11
260.604095
 21
106.494272
 31
0.0
  0
LINE
  5
320
100
AcDbEntity
  8
14
370
    30
  6
Continuous
 62
     7
100
AcDbLine
 10
260.104095
 20
120.494272
 30
0.0
 11
260.104095
 21
107.994272
 31
0.0
  0
LINE
  5
321
100
AcDbEntity
  8
14
370
    30
  6
Continuous
 62
     7
100
AcDbLine
 10
260.104095
 20
107.994272
 30
0.0
 11
260.604095
 21
107.994272
 31
0.0
  0
LINE
  5
322
100
AcDbEntity
  8
14
370
    30
  6
Continuous
 62
     7
100
AcDbLine
 10
258.604095
 20
120.494272
 30
0.0
 11
258.604095
 21
106.494272
 31
0.0
  0
LINE
  5
323
100
AcDbEntity
  8
14
370
    30
  6
Continuous
 62
     7
100
AcDbLine
 10
258.604095
 20
106.494272
 30
0.0
 11
260.604095
 21
106.494272
 31
0.0
  0
LINE
  5
324
100
AcDbEntity
  8
14
370
    30
  6
Continuous
 62
     7
100
AcDbLine
 10
261.104095
 20
120.494272
 30
0.0
 11
261.104095
 21
132.994272
 31
0.0
  0
LINE
  5
325
100
AcDbEntity
  8
14
370
    30
  6
Continuous
 62
     7
100
AcDbLine
 10
261.104095
 20
132.994272
 30
0.0
 11
260.604095
 21
132.994272
 31
0.0
  0
LINE
  5
326
100
AcDbEntity
  8
14
370
    30
  6
Continuous
 62
     7
100
AcDbLine
 10
262.604095
 20
120.494272
 30
0.0
 11
262.604095
 21
134.494272
 31
0.0
  0
LINE
  5
327
100
AcDbEntity
  8
14
370
    30
  6
Continuous
 62
     7
100
AcDbLine
 10
262.604095
 20
134.494272
 30
0.0
 11
260.604095
 21
134.494272
 31
0.0
  0
LINE
  5
328
100
AcDbEntity
  8
14
370
    30
  6
Continuous
 62
     7
100
AcDbLine
 10
260.104095
 20
120.494272
 30
0.0
 11
260.104095
 21
132.994272
 31
0.0
  0
LINE
  5
329
100
AcDbEntity
  8
14
370
    30
  6
Continuous
 62
     7
100
AcDbLine
 10
260.104095
 20
132.994272
 30
0.0
 11
260.604095
 21
132.994272
 31
0.0
  0
LINE
  5
32A
100
AcDbEntity
  8
14
370
    30
  6
Continuous
 62
     7
100
AcDbLine
 10
258.604095
 20
120.494272
 30
0.0
 11
258.604095
 21
134.494272
 31
0.0
  0
LINE
  5
32B
100
AcDbEntity
  8
14
370
    30
  6
Continuous
 62
     7
100
AcDbLine
 10
258.604095
 20
134.494272
 30
0.0
 11
260.604095
 21
134.494272
 31
0.0
  0
LINE
  5
32C
100
AcDbEntity
  8
14
370
    30
  6
Continuous
 62
     7
100
AcDbLine
 10
262.604095
 20
134.494272
 30
0.0
 11
265.370552
 21
121.630445
 31
0.0
  0
ARC
  5
32D
100
AcDbEntity
  8
14
370
    30
  6
Continuous
 62
     7
100
AcDbCircle
 10
260.604095
 20
120.494272
 30
0.0
 40
4.9
100
AcDbArc
 50
-0.000009
 51
13.407316
  0
LINE
  5
32E
100
AcDbEntity
  8
14
370
    30
  6
Continuous
 62
     7
100
AcDbLine
 10
258.604095
 20
134.494272
 30
0.0
 11
255.837638
 21
121.630445
 31
0.0
  0
ARC
  5
32F
100
AcDbEntity
  8
14
370
    30
  6
Continuous
 62
     7
100
AcDbCircle
 10
260.604095
 20
120.494272
 30
0.0
 40
4.9
100
AcDbArc
 50
166.592684
 51
-179.999991
  0
LINE
  5
330
100
AcDbEntity
  8
14
370
    30
  6
Continuous
 62
     7
100
AcDbLine
 10
262.604095
 20
106.494272
 30
0.0
 11
265.370552
 21
119.358098
 31
0.0
  0
ARC
  5
331
100
AcDbEntity
  8
14
370
    30
  6
Continuous
 62
     7
100
AcDbCircle
 10
260.604095
 20
120.494272
 30
0.0
 40
4.9
100
AcDbArc
 50
-13.407316
 51
0.000009
  0
LINE
  5
332
100
AcDbEntity
  8
14
370
    30
  6
Continuous
 62
     7
100
AcDbLine
 10
258.604095
 20
106.494272
 30
0.0
 11
255.837638
 21
119.358098
 31
0.0
  0
ARC
  5
333
100
AcDbEntity
  8
14
370
    30
  6
Continuous
 62
     7
100
AcDbCircle
 10
260.604095
 20
120.494272
 30
0.0
 40
4.9
100
AcDbArc
 50
179.999991
 51
-166.592684
  0
ARC
  5
334
100
AcDbEntity
  8
14
370
    30
  6
Continuous
 62
     7
100
AcDbCircle
 10
260.604095
 20
120.494272
 30
0.0
 40
8.299501
100
AcDbArc
 50
-65.962125
 51
66.02057
  0
ARC
  5
335
100
AcDbEntity
  8
14
370
    30
  6
Continuous
 62
     7
100
AcDbCircle
 10
260.604095
 20
120.494272
 30
0.0
 40
8.299501
100
AcDbArc
 50
113.97943
 51
-114.037875
  0
LINE
  5
336
100
AcDbEntity
  8
14
370
     9
  6
CENTER
 62
     1
100
AcDbLine
 10
260.604095
 20
138.018375
 30
0.0
 11
260.604095
 21
102.870269
 31
0.0
  0
LINE
  5
337
100
AcDbEntity
  8
14
370
     9
  6
CENTER
 62
     1
100
AcDbLine
 10
269.262763
 20
120.494272
 30
0.0
 11
251.831589
 21
120.494272
 31
0.0
  0
ENDBLK
  5
338
100
AcDbEntity
  8
0
100
AcDbBlockEnd
  0
BLOCK
  5
33B
100
AcDbEntity
  8
16
370
     9
  6
Continuous
 62
   174
100
AcDbBlockBegin
  2
*D32
 70
     0
 10
0.0
 20
0.0
 30
0.0
  3
*D32
  1

  0
LINE
  5
33C
100
AcDbEntity
  8
16
370
     9
  6
Continuous
 62
   174
100
AcDbLine
 10
277.84447
 20
134.494272
 30
0.0
 11
277.84447
 21
106.494272
 31
0.0
  0
LINE
  5
33D
100
AcDbEntity
  8
16
370
     9
  6
Continuous
 62
   174
100
AcDbLine
 10
278.84447
 20
134.494272
 30
0.0
 11
264.604095
 21
134.494272
 31
0.0
  0
LINE
  5
33E
100
AcDbEntity
  8
16
370
     9
  6
Continuous
 62
   174
100
AcDbLine
 10
278.84447
 20
106.494272
 30
0.0
 11
264.604095
 21
106.494272
 31
0.0
  0
LINE
  5
33F
100
AcDbEntity
  8
16
370
     9
  6
Continuous
 62
   174
100
AcDbLine
 10
277.84447
 20
134.494272
 30
0.0
 11
278.620927
 21
131.596494
 31
0.0
  0
LINE
  5
340
100
AcDbEntity
  8
16
370
     9
  6
Continuous
 62
   174
100
AcDbLine
 10
277.84447
 20
134.494272
 30
0.0
 11
277.068013
 21
131.596494
 31
0.0
  0
LINE
  5
341
100
AcDbEntity
  8
16
370
     9
  6
Continuous
 62
   174
100
AcDbLine
 10
277.84447
 20
106.494272
 30
0.0
 11
277.068013
 21
109.392049
 31
0.0
  0
LINE
  5
342
100
AcDbEntity
  8
16
370
     9
  6
Continuous
 62
   174
100
AcDbLine
 10
277.84447
 20
106.494272
 30
0.0
 11
278.620927
 21
109.392049
 31
0.0
  0
TEXT
  5
343
100
AcDbEntity
  8
16
370
     9
  6
Continuous
 62
   174
100
AcDbText
 10
277.84447
 20
117.994272
 30
0.0
 40
5.0
  1
28
 50
90.0
 41
0.5
 11
277.84447
 21
117.994272
 31
0.0
100
AcDbText
 73
     1
  0
ENDBLK
  5
344
100
AcDbEntity
  8
16
370
     9
  6
Continuous
 62
   174
100
AcDbBlockEnd
  0
BLOCK
  5
347
100
AcDbEntity
  8
16
370
     9
  6
Continuous
 62
   174
100
AcDbBlockBegin
  2
*D33
 70
     0
 10
0.0
 20
0.0
 30
0.0
  3
*D33
  1

  0
LINE
  5
348
100
AcDbEntity
  8
16
370
     9
  6
Continuous
 62
   174
100
AcDbLine
 10
244.757038
 20
107.994272
 30
0.0
 11
244.757038
 21
132.994272
 31
0.0
  0
LINE
  5
349
100
AcDbEntity
  8
16
370
     9
  6
Continuous
 62
   174
100
AcDbLine
 10
243.757038
 20
107.994272
 30
0.0
 11
258.104095
 21
107.994272
 31
0.0
  0
LINE
  5
34A
100
AcDbEntity
  8
16
370
     9
  6
Continuous
 62
   174
100
AcDbLine
 10
243.757038
 20
132.994272
 30
0.0
 11
258.104095
 21
132.994272
 31
0.0
  0
LINE
  5
34B
100
AcDbEntity
  8
16
370
     9
  6
Continuous
 62
   174
100
AcDbLine
 10
244.757038
 20
107.994272
 30
0.0
 11
243.980581
 21
110.892049
 31
0.0
  0
LINE
  5
34C
100
AcDbEntity
  8
16
370
     9
  6
Continuous
 62
   174
100
AcDbLine
 10
244.757038
 20
107.994272
 30
0.0
 11
245.533495
 21
110.892049
 31
0.0
  0
LINE
  5
34D
100
AcDbEntity
  8
16
370
     9
  6
Continuous
 62
   174
100
AcDbLine
 10
244.757038
 20
132.994272
 30
0.0
 11
245.533495
 21
130.096494
 31
0.0
  0
LINE
  5
34E
100
AcDbEntity
  8
16
370
     9
  6
Continuous
 62
   174
100
AcDbLine
 10
244.757038
 20
132.994272
 30
0.0
 11
243.980581
 21
130.096494
 31
0.0
  0
TEXT
  5
34F
100
AcDbEntity
  8
16
370
     9
  6
Continuous
 62
   174
100
AcDbText
 10
244.757038
 20
117.994272
 30
0.0
 40
5.0
  1
25
 50
90.0
 41
0.5
 11
244.757038
 21
117.994272
 31
0.0
100
AcDbText
 73
     1
  0
ENDBLK
  5
350
100
AcDbEntity
  8
16
370
     9
  6
Continuous
 62
   174
100
AcDbBlockEnd
  0
BLOCK
  5
354
100
AcDbEntity
  8
16
370
     9
  6
Continuous
 62
   174
100
AcDbBlockBegin
  2
*D34
 70
     0
 10
0.0
 20
0.0
 30
0.0
  3
*D34
  1

  0
LINE
  5
355
100
AcDbEntity
  8
16
370
     9
  6
Continuous
 62
   174
100
AcDbLine
 10
251.437366
 20
93.338798
 30
0.0
 11
269.104095
 21
93.338798
 31
0.0
  0
LINE
  5
356
100
AcDbEntity
  8
16
370
     9
  6
Continuous
 62
   174
100
AcDbLine
 10
260.104095
 20
92.338798
 30
0.0
 11
260.104095
 21
105.994799
 31
0.0
  0
LINE
  5
357
100
AcDbEntity
  8
16
370
     9
  6
Continuous
 62
   174
100
AcDbLine
 10
261.104095
 20
92.338798
 30
0.0
 11
261.104095
 21
105.994799
 31
0.0
  0
LINE
  5
358
100
AcDbEntity
  8
16
370
     9
  6
Continuous
 62
   174
100
AcDbLine
 10
260.104095
 20
93.338798
 30
0.0
 11
257.206317
 21
92.562341
 31
0.0
  0
LINE
  5
359
100
AcDbEntity
  8
16
370
     9
  6
Continuous
 62
   174
100
AcDbLine
 10
260.104095
 20
93.338798
 30
0.0
 11
257.206317
 21
94.115255
 31
0.0
  0
LINE
  5
35A
100
AcDbEntity
  8
16
370
     9
  6
Continuous
 62
   174
100
AcDbLine
 10
261.104095
 20
93.338798
 30
0.0
 11
264.001872
 21
94.115255
 31
0.0
  0
LINE
  5
35B
100
AcDbEntity
  8
16
370
     9
  6
Continuous
 62
   174
100
AcDbLine
 10
261.104095
 20
93.338798
 30
0.0
 11
264.001872
 21
92.562341
 31
0.0
  0
TEXT
  5
35C
100
AcDbEntity
  8
16
370
     9
  6
Continuous
 62
   174
100
AcDbText
 10
252.687366
 20
93.338798
 30
0.0
 40
5.0
  1
1
 41
0.5
 11
252.687366
 21
93.338798
 31
0.0
100
AcDbText
 73
     1
  0
ENDBLK
  5
35D
100
AcDbEntity
  8
16
370
     9
  6
Continuous
 62
   174
100
AcDbBlockEnd
  0
BLOCK
  5
360
100
AcDbEntity
  8
16
370
     9
  6
Continuous
 62
   174
100
AcDbBlockBegin
  2
*D35
 70
     0
 10
0.0
 20
0.0
 30
0.0
  3
*D35
  1

  0
LINE
  5
361
100
AcDbEntity
  8
16
370
     9
  6
Continuous
 62
   174
100
AcDbLine
 10
382.426374
 20
86.2458
 30
0.0
 11
382.426374
 21
69.6458
 31
0.0
  0
LINE
  5
362
100
AcDbEntity
  8
16
370
     9
  6
Continuous
 62
   174
100
AcDbLine
 10
383.426374
 20
86.2458
 30
0.0
 11
347.746066
 21
86.2458
 31
0.0
  0
LINE
  5
363
100
AcDbEntity
  8
16
370
     9
  6
Continuous
 62
   174
100
AcDbLine
 10
383.426374
 20
69.6458
 30
0.0
 11
347.746066
 21
69.6458
 31
0.0
  0
LINE
  5
364
100
AcDbEntity
  8
16
370
     9
  6
Continuous
 62
   174
100
AcDbLine
 10
382.426374
 20
86.2458
 30
0.0
 11
383.202831
 21
83.348022
 31
0.0
  0
LINE
  5
365
100
AcDbEntity
  8
16
370
     9
  6
Continuous
 62
   174
100
AcDbLine
 10
382.426374
 20
86.2458
 30
0.0
 11
381.649917
 21
83.348022
 31
0.0
  0
LINE
  5
366
100
AcDbEntity
  8
16
370
     9
  6
Continuous
 62
   174
100
AcDbLine
 10
382.426374
 20
69.6458
 30
0.0
 11
381.649917
 21
72.543577
 31
0.0
  0
LINE
  5
367
100
AcDbEntity
  8
16
370
     9
  6
Continuous
 62
   174
100
AcDbLine
 10
382.426374
 20
69.6458
 30
0.0
 11
383.202831
 21
72.543577
 31
0.0
  0
TEXT
  5
368
100
AcDbEntity
  8
16
370
     9
  6
Continuous
 62
   174
100
AcDbText
 10
382.426374
 20
72.9458
 30
0.0
 40
5.0
  1
%%c17
 50
90.0
 41
0.666667
 11
382.426374
 21
72.9458
 31
0.0
100
AcDbText
 73
     1
  0
ENDBLK
  5
369
100
AcDbEntity
  8
16
370
     9
  6
Continuous
 62
   174
100
AcDbBlockEnd
  0
BLOCK
  5
36C
100
AcDbEntity
  8
0
370
     9
  6
Continuous
 62
     7
100
AcDbBlockBegin
  2
*G36
 70
     0
 10
0.0
 20
0.0
 30
0.0
  3
*G36
  1

  0
LINE
  5
36D
100
AcDbEntity
  8
14
370
     9
  6
PHANTOM
 62
     7
100
AcDbLine
 10
336.380485
 20
121.741208
 30
0.0
 11
315.314811
 21
121.958862
 31
0.0
  0
LINE
  5
36E
100
AcDbEntity
  8
14
370
     9
  6
PHANTOM
 62
     7
100
AcDbLine
 10
340.522144
 20
112.859392
 30
0.0
 11
327.148122
 21
96.582244
 31
0.0
  0
LINE
  5
36F
100
AcDbEntity
  8
14
370
     9
  6
PHANTOM
 62
     7
100
AcDbLine
 10
315.314811
 20
121.958862
 30
0.0
 11
327.148122
 21
96.582244
 31
0.0
  0
ENDBLK
  5
370
100
AcDbEntity
  8
0
100
AcDbBlockEnd
  0
BLOCK
  5
373
100
AcDbEntity
  8
0
370
     9
  6
Continuous
 62
     7
100
AcDbBlockBegin
  2
*G37
 70
     0
 10
0.0
 20
0.0
 30
0.0
  3
*G37
  1

  0
LINE
  5
374
100
AcDbEntity
  8
14
370
     9
  6
PHANTOM
 62
     7
100
AcDbLine
 10
321.252303
 20
66.640897
 30
0.0
 11
320.407066
 21
68.453512
 31
0.0
  0
LINE
  5
375
100
AcDbEntity
  8
14
370
     9
  6
PHANTOM
 62
     7
100
AcDbLine
 10
320.407066
 20
68.453512
 30
0.0
 11
336.401321
 21
79.111552
 31
0.0
  0
LINE
  5
376
100
AcDbEntity
  8
14
370
     9
  6
PHANTOM
 62
     7
100
AcDbLine
 10
321.252303
 20
66.640897
 30
0.0
 11
322.09754
 21
64.828281
 31
0.0
  0
LINE
  5
377
100
AcDbEntity
  8
14
370
     9
  6
PHANTOM
 62
     7
100
AcDbLine
 10
322.09754
 20
64.828281
 30
0.0
 11
340.54298
 21
70.229736
 31
0.0
  0
ENDBLK
  5
378
100
AcDbEntity
  8
0
100
AcDbBlockEnd
  0
BLOCK
  5
37B
100
AcDbEntity
  8
16
370
     9
  6
Continuous
 62
   174
100
AcDbBlockBegin
  2
*D38
 70
     0
 10
0.0
 20
0.0
 30
0.0
  3
*D38
  1

  0
ARC
  5
37C
100
AcDbEntity
  8
16
370
     9
  6
Continuous
 62
   174
100
AcDbCircle
 10
345.301376
 20
120.494536
 30
0.0
 40
38.402156
100
AcDbArc
 50
155.0
 51
-155.0
  0
LINE
  5
37D
100
AcDbEntity
  8
16
370
     9
  6
Continuous
 62
   174
100
AcDbLine
 10
310.497203
 20
136.723988
 30
0.0
 11
309.976258
 21
133.769565
 31
0.0
  0
LINE
  5
37E
100
AcDbEntity
  8
16
370
     9
  6
Continuous
 62
   174
100
AcDbLine
 10
310.497203
 20
136.723988
 30
0.0
 11
308.56884
 21
134.425854
 31
0.0
  0
LINE
  5
37F
100
AcDbEntity
  8
16
370
     9
  6
Continuous
 62
   174
100
AcDbLine
 10
310.497203
 20
104.265083
 30
0.0
 11
308.56884
 21
106.563217
 31
0.0
  0
LINE
  5
380
100
AcDbEntity
  8
16
370
     9
  6
Continuous
 62
   174
100
AcDbLine
 10
310.497203
 20
104.265083
 30
0.0
 11
309.976258
 21
107.219506
 31
0.0
  0
TEXT
  5
381
100
AcDbEntity
  8
16
370
     9
  6
Continuous
 62
   174
100
AcDbText
 10
306.89922
 20
116.744536
 30
0.0
 40
5.0
  1
50%%d
 50
90.0
 41
0.5
 11
306.89922
 21
116.744536
 31
0.0
100
AcDbText
 73
     1
  0
ENDBLK
  5
382
100
AcDbEntity
  8
16
370
     9
  6
Continuous
 62
   174
100
AcDbBlockEnd
  0
BLOCK
  5
385
100
AcDbEntity
  8
16
370
     9
  6
Continuous
 62
   174
100
AcDbBlockBegin
  2
*D39
 70
     0
 10
0.0
 20
0.0
 30
0.0
  3
*D39
  1

  0
ARC
  5
386
100
AcDbEntity
  8
16
370
     9
  6
Continuous
 62
   174
100
AcDbCircle
 10
345.495743
 20
77.9458
 30
0.0
 40
37.833271
100
AcDbArc
 50
155.0
 51
-155.0
  0
LINE
  5
387
100
AcDbEntity
  8
16
370
     9
  6
Continuous
 62
   174
100
AcDbLine
 10
311.207155
 20
93.934831
 30
0.0
 11
310.686211
 21
90.980408
 31
0.0
  0
LINE
  5
388
100
AcDbEntity
  8
16
370
     9
  6
Continuous
 62
   174
100
AcDbLine
 10
311.207155
 20
93.934831
 30
0.0
 11
309.278792
 21
91.636698
 31
0.0
  0
LINE
  5
389
100
AcDbEntity
  8
16
370
     9
  6
Continuous
 62
   174
100
AcDbLine
 10
311.207155
 20
61.956769
 30
0.0
 11
309.278792
 21
64.254902
 31
0.0
  0
LINE
  5
38A
100
AcDbEntity
  8
16
370
     9
  6
Continuous
 62
   174
100
AcDbLine
 10
311.207155
 20
61.956769
 30
0.0
 11
310.686211
 21
64.911192
 31
0.0
  0
TEXT
  5
38B
100
AcDbEntity
  8
16
370
     9
  6
Continuous
 62
   174
100
AcDbText
 10
307.662472
 20
74.1958
 30
0.0
 40
5.0
  1
50%%d
 50
90.0
 41
0.5
 11
307.662472
 21
74.1958
 31
0.0
100
AcDbText
 73
     1
  0
ENDBLK
  5
38C
100
AcDbEntity
  8
16
370
     9
  6
Continuous
 62
   174
100
AcDbBlockEnd
  0
BLOCK
  5
391
100
AcDbEntity
  8
0
370
     9
  6
Continuous
 62
     7
100
AcDbBlockBegin
  2
*G40
 70
     0
 10
0.0
 20
0.0
 30
0.0
  3
*G40
  1

  0
LINE
  5
392
100
AcDbEntity
  8
14
370
    30
  6
Continuous
 62
     7
100
AcDbLine
 10
337.743169
 20
125.394536
 30
0.0
 11
345.009314
 21
128.655034
 31
0.0
  0
ARC
  5
393
100
AcDbEntity
  8
14
370
    30
  6
Continuous
 62
     7
100
AcDbCircle
 10
345.743169
 20
126.794536
 30
0.0
 40
2.0
100
AcDbArc
 50
0.0
 51
111.526265
  0
LINE
  5
394
100
AcDbEntity
  8
14
370
    30
  6
Continuous
 62
     7
100
AcDbLine
 10
347.743169
 20
126.794536
 30
0.0
 11
347.743169
 21
120.494536
 31
0.0
  0
LINE
  5
395
100
AcDbEntity
  8
14
370
    30
  6
Continuous
 62
     7
100
AcDbLine
 10
351.743169
 20
125.494536
 30
0.0
 11
349.743169
 21
125.494536
 31
0.0
  0
LINE
  5
396
100
AcDbEntity
  8
14
370
    30
  6
Continuous
 62
     7
100
AcDbLine
 10
349.743169
 20
125.494536
 30
0.0
 11
347.743169
 21
126.494536
 31
0.0
  0
LINE
  5
397
100
AcDbEntity
  8
14
370
     9
  6
Continuous
 62
     7
100
AcDbLine
 10
349.743169
 20
125.494536
 30
0.0
 11
349.743169
 21
120.494536
 31
0.0
  0
LINE
  5
398
100
AcDbEntity
  8
14
370
    30
  6
Continuous
 62
     7
100
AcDbLine
 10
358.743169
 20
127.494536
 30
0.0
 11
368.743169
 21
126.994536
 31
0.0
  0
LINE
  5
399
100
AcDbEntity
  8
14
370
    30
  6
Continuous
 62
     7
100
AcDbLine
 10
368.743169
 20
126.994536
 30
0.0
 11
368.743169
 21
120.494536
 31
0.0
  0
LINE
  5
39A
100
AcDbEntity
  8
14
370
    30
  6
Continuous
 62
     7
100
AcDbLine
 10
337.743169
 20
115.594536
 30
0.0
 11
345.009314
 21
112.334037
 31
0.0
  0
ARC
  5
39B
100
AcDbEntity
  8
14
370
    30
  6
Continuous
 62
     7
100
AcDbCircle
 10
345.743169
 20
114.194536
 30
0.0
 40
2.0
100
AcDbArc
 50
-111.526265
 51
0.0
  0
LINE
  5
39C
100
AcDbEntity
  8
14
370
    30
  6
Continuous
 62
     7
100
AcDbLine
 10
347.743169
 20
114.194536
 30
0.0
 11
347.743169
 21
120.494536
 31
0.0
  0
LINE
  5
39D
100
AcDbEntity
  8
14
370
    30
  6
Continuous
 62
     7
100
AcDbLine
 10
351.743169
 20
115.494536
 30
0.0
 11
349.743169
 21
115.494536
 31
0.0
  0
LINE
  5
39E
100
AcDbEntity
  8
14
370
    30
  6
Continuous
 62
     7
100
AcDbLine
 10
349.743169
 20
115.494536
 30
0.0
 11
347.743169
 21
114.494536
 31
0.0
  0
LINE
  5
39F
100
AcDbEntity
  8
14
370
     9
  6
Continuous
 62
     7
100
AcDbLine
 10
349.743169
 20
115.494536
 30
0.0
 11
349.743169
 21
120.494536
 31
0.0
  0
LINE
  5
3A0
100
AcDbEntity
  8
14
370
    30
  6
Continuous
 62
     7
100
AcDbLine
 10
358.743169
 20
113.494536
 30
0.0
 11
368.743169
 21
113.994536
 31
0.0
  0
LINE
  5
3A1
100
AcDbEntity
  8
14
370
    30
  6
Continuous
 62
     7
100
AcDbLine
 10
368.743169
 20
113.994536
 30
0.0
 11
368.743169
 21
120.494536
 31
0.0
  0
LINE
  5
3A2
100
AcDbEntity
  8
14
370
    30
  6
Continuous
 62
     7
100
AcDbLine
 10
337.743169
 20
125.394536
 30
0.0
 11
318.743169
 21
134.494536
 31
0.0
  0
LINE
  5
3A3
100
AcDbEntity
  8
14
370
    30
  6
Continuous
 62
     7
100
AcDbLine
 10
337.743169
 20
115.594536
 30
0.0
 11
318.743169
 21
106.494536
 31
0.0
  0
LINE
  5
3A4
100
AcDbEntity
  8
14
370
    30
  6
Continuous
 62
     7
100
AcDbLine
 10
318.743169
 20
134.494536
 30
0.0
 11
318.743169
 21
106.494536
 31
0.0
  0
LINE
  5
3A5
100
AcDbEntity
  8
14
370
     9
  6
Continuous
 62
     7
100
AcDbLine
 10
337.743169
 20
125.394536
 30
0.0
 11
337.743169
 21
115.594536
 31
0.0
  0
LINE
  5
3A6
100
AcDbEntity
  8
14
370
    30
  6
Continuous
 62
     7
100
AcDbLine
 10
351.743169
 20
120.494536
 30
0.0
 11
351.743169
 21
112.294536
 31
0.0
  0
LINE
  5
3A7
100
AcDbEntity
  8
14
370
    30
  6
Continuous
 62
     7
100
AcDbLine
 10
351.743169
 20
112.294536
 30
0.0
 11
358.743169
 21
112.294536
 31
0.0
  0
LINE
  5
3A8
100
AcDbEntity
  8
14
370
    30
  6
Continuous
 62
     7
100
AcDbLine
 10
358.743169
 20
112.294536
 30
0.0
 11
358.743169
 21
120.494536
 31
0.0
  0
LINE
  5
3A9
100
AcDbEntity
  8
14
370
    30
  6
Continuous
 62
     7
100
AcDbLine
 10
351.743169
 20
120.494536
 30
0.0
 11
351.743169
 21
128.694536
 31
0.0
  0
LINE
  5
3AA
100
AcDbEntity
  8
14
370
    30
  6
Continuous
 62
     7
100
AcDbLine
 10
351.743169
 20
128.694536
 30
0.0
 11
358.743169
 21
128.694536
 31
0.0
  0
LINE
  5
3AB
100
AcDbEntity
  8
14
370
    30
  6
Continuous
 62
     7
100
AcDbLine
 10
358.743169
 20
128.694536
 30
0.0
 11
358.743169
 21
120.494536
 31
0.0
  0
LINE
  5
3AC
100
AcDbEntity
  8
14
370
    30
  6
Continuous
 62
     7
100
AcDbLine
 10
351.743169
 20
124.494536
 30
0.0
 11
358.743169
 21
124.494536
 31
0.0
  0
LINE
  5
3AD
100
AcDbEntity
  8
14
370
    30
  6
Continuous
 62
     7
100
AcDbLine
 10
351.743169
 20
116.494536
 30
0.0
 11
358.743169
 21
116.494536
 31
0.0
  0
LINE
  5
3AE
100
AcDbEntity
  8
14
370
     9
  6
CENTER
 62
     1
100
AcDbLine
 10
363.743169
 20
122.590102
 30
0.0
 11
363.743169
 21
118.258887
 31
0.0
  0
LINE
  5
3AF
100
AcDbEntity
  8
14
370
     9
  6
CENTER
 62
     1
100
AcDbLine
 10
308.176374
 20
120.494536
 30
0.0
 11
372.59152
 21
120.494536
 31
0.0
  0
ENDBLK
  5
3B0
100
AcDbEntity
  8
0
100
AcDbBlockEnd
  0
BLOCK
  5
3B7
100
AcDbEntity
  8
0
370
     9
  6
Continuous
 62
     7
100
AcDbBlockBegin
  2
*G41
 70
     0
 10
0.0
 20
0.0
 30
0.0
  3
*G41
  1

  0
LINE
  5
3B8
100
AcDbEntity
  8
14
370
    30
  6
Continuous
 62
     7
100
AcDbLine
 10
318.746066
 20
77.9458
 30
0.0
 11
318.746066
 21
79.9458
 31
0.0
  0
LINE
  5
3B9
100
AcDbEntity
  8
14
370
    30
  6
Continuous
 62
     7
100
AcDbLine
 10
318.746066
 20
79.9458
 30
0.0
 11
337.746066
 21
82.8458
 31
0.0
  0
LINE
  5
3BA
100
AcDbEntity
  8
14
370
     9
  6
Continuous
 62
     7
100
AcDbLine
 10
337.746066
 20
82.8458
 30
0.0
 11
337.746066
 21
77.9458
 31
0.0
  0
LINE
  5
3BB
100
AcDbEntity
  8
14
370
    30
  6
Continuous
 62
     7
100
AcDbLine
 10
337.746066
 20
82.8458
 30
0.0
 11
345.012211
 21
86.106299
 31
0.0
  0
ARC
  5
3BC
100
AcDbEntity
  8
14
370
    30
  6
Continuous
 62
     7
100
AcDbCircle
 10
345.746066
 20
84.2458
 30
0.0
 40
2.0
100
AcDbArc
 50
0.0
 51
111.526265
  0
LINE
  5
3BD
100
AcDbEntity
  8
14
370
    30
  6
Continuous
 62
     7
100
AcDbLine
 10
347.746066
 20
84.2458
 30
0.0
 11
347.746066
 21
77.9458
 31
0.0
  0
LINE
  5
3BE
100
AcDbEntity
  8
14
370
    30
  6
Continuous
 62
     7
100
AcDbLine
 10
351.746066
 20
82.9458
 30
0.0
 11
349.746066
 21
82.9458
 31
0.0
  0
LINE
  5
3BF
100
AcDbEntity
  8
14
370
    30
  6
Continuous
 62
     7
100
AcDbLine
 10
349.746066
 20
82.9458
 30
0.0
 11
347.746066
 21
83.9458
 31
0.0
  0
LINE
  5
3C0
100
AcDbEntity
  8
14
370
     9
  6
Continuous
 62
     7
100
AcDbLine
 10
349.746066
 20
82.9458
 30
0.0
 11
349.746066
 21
77.9458
 31
0.0
  0
LINE
  5
3C1
100
AcDbEntity
  8
14
370
    30
  6
Continuous
 62
     7
100
AcDbLine
 10
351.746066
 20
77.9458
 30
0.0
 11
351.746066
 21
85.1458
 31
0.0
  0
LINE
  5
3C2
100
AcDbEntity
  8
14
370
    30
  6
Continuous
 62
     7
100
AcDbLine
 10
351.746066
 20
85.1458
 30
0.0
 11
358.746066
 21
85.1458
 31
0.0
  0
LINE
  5
3C3
100
AcDbEntity
  8
14
370
    30
  6
Continuous
 62
     7
100
AcDbLine
 10
358.746066
 20
85.1458
 30
0.0
 11
358.746066
 21
77.9458
 31
0.0
  0
LINE
  5
3C4
100
AcDbEntity
  8
14
370
    30
  6
Continuous
 62
     7
100
AcDbLine
 10
358.746066
 20
84.9458
 30
0.0
 11
368.746066
 21
84.4458
 31
0.0
  0
LINE
  5
3C5
100
AcDbEntity
  8
14
370
    30
  6
Continuous
 62
     7
100
AcDbLine
 10
368.746066
 20
84.4458
 30
0.0
 11
368.746066
 21
77.9458
 31
0.0
  0
LINE
  5
3C6
100
AcDbEntity
  8
14
370
    30
  6
Continuous
 62
     7
100
AcDbLine
 10
318.746066
 20
77.9458
 30
0.0
 11
318.746066
 21
75.9458
 31
0.0
  0
LINE
  5
3C7
100
AcDbEntity
  8
14
370
    30
  6
Continuous
 62
     7
100
AcDbLine
 10
318.746066
 20
75.9458
 30
0.0
 11
337.746066
 21
73.0458
 31
0.0
  0
LINE
  5
3C8
100
AcDbEntity
  8
14
370
     9
  6
Continuous
 62
     7
100
AcDbLine
 10
337.746066
 20
73.0458
 30
0.0
 11
337.746066
 21
77.9458
 31
0.0
  0
LINE
  5
3C9
100
AcDbEntity
  8
14
370
    30
  6
Continuous
 62
     7
100
AcDbLine
 10
337.746066
 20
73.0458
 30
0.0
 11
345.012211
 21
69.785301
 31
0.0
  0
ARC
  5
3CA
100
AcDbEntity
  8
14
370
    30
  6
Continuous
 62
     7
100
AcDbCircle
 10
345.746066
 20
71.6458
 30
0.0
 40
2.0
100
AcDbArc
 50
-111.526265
 51
0.0
  0
LINE
  5
3CB
100
AcDbEntity
  8
14
370
    30
  6
Continuous
 62
     7
100
AcDbLine
 10
347.746066
 20
71.6458
 30
0.0
 11
347.746066
 21
77.9458
 31
0.0
  0
LINE
  5
3CC
100
AcDbEntity
  8
14
370
    30
  6
Continuous
 62
     7
100
AcDbLine
 10
351.746066
 20
72.9458
 30
0.0
 11
349.746066
 21
72.9458
 31
0.0
  0
LINE
  5
3CD
100
AcDbEntity
  8
14
370
    30
  6
Continuous
 62
     7
100
AcDbLine
 10
349.746066
 20
72.9458
 30
0.0
 11
347.746066
 21
71.9458
 31
0.0
  0
LINE
  5
3CE
100
AcDbEntity
  8
14
370
     9
  6
Continuous
 62
     7
100
AcDbLine
 10
349.746066
 20
72.9458
 30
0.0
 11
349.746066
 21
77.9458
 31
0.0
  0
LINE
  5
3CF
100
AcDbEntity
  8
14
370
    30
  6
Continuous
 62
     7
100
AcDbLine
 10
351.746066
 20
77.9458
 30
0.0
 11
351.746066
 21
70.7458
 31
0.0
  0
LINE
  5
3D0
100
AcDbEntity
  8
14
370
    30
  6
Continuous
 62
     7
100
AcDbLine
 10
351.746066
 20
70.7458
 30
0.0
 11
358.746066
 21
70.7458
 31
0.0
  0
LINE
  5
3D1
100
AcDbEntity
  8
14
370
    30
  6
Continuous
 62
     7
100
AcDbLine
 10
358.746066
 20
70.7458
 30
0.0
 11
358.746066
 21
77.9458
 31
0.0
  0
LINE
  5
3D2
100
AcDbEntity
  8
14
370
    30
  6
Continuous
 62
     7
100
AcDbLine
 10
358.746066
 20
70.9458
 30
0.0
 11
368.746066
 21
71.4458
 31
0.0
  0
LINE
  5
3D3
100
AcDbEntity
  8
14
370
    30
  6
Continuous
 62
     7
100
AcDbLine
 10
368.746066
 20
71.4458
 30
0.0
 11
368.746066
 21
77.9458
 31
0.0
  0
LINE
  5
3D4
100
AcDbEntity
  8
14
370
     9
  6
CENTER
 62
     1
100
AcDbLine
 10
363.746066
 20
80.308895
 30
0.0
 11
363.746066
 21
75.386557
 31
0.0
  0
LINE
  5
3D5
100
AcDbEntity
  8
14
370
     9
  6
CENTER
 62
     1
100
AcDbLine
 10
309.536976
 20
77.9458
 30
0.0
 11
372.594417
 21
77.9458
 31
0.0
  0
ENDBLK
  5
3D6
100
AcDbEntity
  8
0
100
AcDbBlockEnd
  0
ENDSEC
  0
SECTION
  2
ENTITIES
  0
INSERT
  5
3E
100
AcDbEntity
  8
0
  6
Continuous
 62
     7
100
AcDbBlockReference
  2
*G0
 10
0.0
 20
0.0
 30
0.0
  0
INSERT
  5
5B
100
AcDbEntity
  8
0
370
     9
  6
Continuous
 62
     7
100
AcDbBlockReference
  2
*G1
 10
0.0
 20
0.0
 30
0.0
  0
INSERT
  5
6A
100
AcDbEntity
  8
0
370
     9
  6
Continuous
 62
     7
100
AcDbBlockReference
  2
*G2
 10
0.0
 20
0.0
 30
0.0
  0
INSERT
  5
7A
100
AcDbEntity
  8
0
370
     9
  6
Continuous
 62
     7
100
AcDbBlockReference
  2
*G3
 10
0.0
 20
0.0
 30
0.0
  0
INSERT
  5
97
100
AcDbEntity
  8
0
370
     9
  6
Continuous
 62
     7
100
AcDbBlockReference
  2
*G4
 10
0.0
 20
0.0
 30
0.0
  0
INSERT
  5
F2
100
AcDbEntity
  8
0
370
     9
  6
Continuous
 62
     7
100
AcDbBlockReference
  2
*G5
 10
0.0
 20
0.0
 30
0.0
  0
DIMENSION
  5
FE
100
AcDbEntity
  8
16
370
     9
  6
Continuous
 62
   174
100
AcDbDimension
  2
*D9
 10
370.39301
 20
259.535519
 30
0.0
 11
353.89301
 21
259.535519
 31
0.0
 71
     5
 72
     1
 41
1.0
 42
0.0
  1
(33)
100
AcDbAlignedDimension
 13
370.39301
 23
239.723058
 33
0.0
 14
337.39301
 24
246.495902
 34
0.0
100
AcDbRotatedDimension
  0
DIMENSION
  5
10A
100
AcDbEntity
  8
16
370
     9
  6
Continuous
 62
   174
100
AcDbDimension
  2
*D10
 10
337.39301
 20
259.535519
 30
0.0
 11
303.89301
 21
259.535519
 31
0.0
 71
     5
 72
     1
 41
1.0
 42
0.0
  1
呼び寸 mm
100
AcDbAlignedDimension
 13
337.39301
 23
246.495902
 33
0.0
 14
270.39301
 24
242.245902
 34
0.0
100
AcDbRotatedDimension
  0
DIMENSION
  5
116
100
AcDbEntity
  8
16
370
     9
  6
Continuous
 62
   174
100
AcDbDimension
  2
*D11
 10
227.088779
 20
259.535519
 30
0.0
 11
236.488779
 21
259.535519
 31
0.0
 71
     5
 72
     1
 41
1.0
 42
0.0
  1
19
100
AcDbAlignedDimension
 13
227.088779
 23
242.672994
 33
0.0
 14
245.888779
 24
242.672994
 34
0.0
100
AcDbRotatedDimension
  0
DIMENSION
  5
122
100
AcDbEntity
  8
16
370
     9
  6
Continuous
 62
   174
100
AcDbDimension
  2
*D12
 10
41.784411
 20
257.04918
 30
0.0
 11
48.884412
 21
257.04918
 31
0.0
 71
     5
 72
     1
 41
1.0
 42
0.0
  1
14
100
AcDbAlignedDimension
 13
41.784411
 23
242.875144
 33
0.0
 14
55.984413
 24
242.875144
 34
0.0
100
AcDbRotatedDimension
  0
DIMENSION
  5
12E
100
AcDbEntity
  8
16
370
     9
  6
Continuous
 62
   174
100
AcDbDimension
  2
*D13
 10
177.442128
 20
260.491803
 30
0.0
 11
161.942128
 21
260.491803
 31
0.0
 71
     5
 72
     1
 41
1.0
 42
0.0
  1
(31)
100
AcDbAlignedDimension
 13
177.442128
 23
241.253112
 33
0.0
 14
146.442128
 24
245.425956
 34
0.0
100
AcDbRotatedDimension
  0
DIMENSION
  5
13A
100
AcDbEntity
  8
16
370
     9
  6
Continuous
 62
   174
100
AcDbDimension
  2
*D14
 10
146.442128
 20
260.491803
 30
0.0
 11
111.942128
 21
260.491803
 31
0.0
 71
     5
 72
     1
 41
1.0
 42
0.0
  1
呼び寸 mm
100
AcDbAlignedDimension
 13
146.442128
 23
245.425956
 33
0.0
 14
77.442128
 24
241.775956
 34
0.0
100
AcDbRotatedDimension
  0
DIMENSION
  5
144
100
AcDbEntity
  8
16
370
     9
  6
Continuous
 62
   174
100
AcDbDimension
  2
*D15
 10
102.513661
 20
239.775956
 30
0.0
 11
102.513661
 21
220.136612
 31
0.0
 71
     5
 72
     1
 41
1.0
 42
0.0
  1
φ6
100
AcDbAlignedDimension
 13
102.513661
 23
239.775956
 33
0.0
 14
102.513661
 24
233.775956
 34
0.0
 50
90.0
100
AcDbRotatedDimension
  0
DIMENSION
  5
14E
100
AcDbEntity
  8
16
370
     9
  6
Continuous
 62
   174
100
AcDbDimension
  2
*D16
 10
306.202186
 20
240.245902
 30
0.0
 11
306.202186
 21
218.415301
 31
0.0
 71
     5
 72
     1
 41
1.0
 42
0.0
  1
φ10
100
AcDbAlignedDimension
 13
306.202186
 23
240.245902
 33
0.0
 14
306.202186
 24
230.245902
 34
0.0
 50
90.0
100
AcDbRotatedDimension
  0
LINE
  5
14F
100
AcDbEntity
  8
16
370
     9
  6
Continuous
 62
   174
100
AcDbLine
 10
177.442128
 20
236.775956
 30
0.0
 11
178.393364
 21
239.621154
 31
0.0
  0
LINE
  5
150
100
AcDbEntity
  8
16
370
     9
  6
Continuous
 62
   174
100
AcDbLine
 10
177.442128
 20
236.775956
 30
0.0
 11
179.688521
 21
238.764352
 31
0.0
  0
POLYLINE
  5
151
100
AcDbEntity
  8
16
370
     9
  6
Continuous
 62
   174
100
AcDb2dPolyline
 66
     1
 10
0.0
 20
0.0
 30
0.0
  0
VERTEX
  5
152
100
AcDbEntity
  8
16
370
     9
  6
Continuous
 62
   174
100
AcDbVertex
100
AcDb2dVertex
 10
177.442128
 20
236.775956
 30
0.0
  0
VERTEX
  5
153
100
AcDbEntity
  8
16
370
     9
  6
Continuous
 62
   174
100
AcDbVertex
100
AcDb2dVertex
 10
188.196721
 20
253.032787
 30
0.0
  0
VERTEX
  5
154
100
AcDbEntity
  8
16
370
     9
  6
Continuous
 62
   174
100
AcDbVertex
100
AcDb2dVertex
 10
200.696721
 20
253.032787
 30
0.0
  0
SEQEND
  5
155
100
AcDbEntity
  8
16
370
     9
  6
Continuous
 62
   174
  0
TEXT
  5
156
100
AcDbEntity
  8
16
370
     9
  6
Continuous
 62
   174
100
AcDbText
 10
188.196721
 20
253.032787
 30
0.0
 40
5.0
  1
PIVOT
 41
0.5
 11
188.196721
 21
253.032787
 31
0.0
100
AcDbText
 73
     1
  0
LINE
  5
157
100
AcDbEntity
  8
16
370
     9
  6
Continuous
 62
   174
100
AcDbLine
 10
370.39301
 20
235.245902
 30
0.0
 11
371.158742
 21
238.146532
 31
0.0
  0
LINE
  5
158
100
AcDbEntity
  8
16
370
     9
  6
Continuous
 62
   174
100
AcDbLine
 10
370.39301
 20
235.245902
 30
0.0
 11
372.506468
 21
237.375055
 31
0.0
  0
POLYLINE
  5
159
100
AcDbEntity
  8
16
370
     9
  6
Continuous
 62
   174
100
AcDb2dPolyline
 66
     1
 10
0.0
 20
0.0
 30
0.0
  0
VERTEX
  5
15A
100
AcDbEntity
  8
16
370
     9
  6
Continuous
 62
   174
100
AcDbVertex
100
AcDb2dVertex
 10
370.39301
 20
235.245902
 30
0.0
  0
VERTEX
  5
15B
100
AcDbEntity
  8
16
370
     9
  6
Continuous
 62
   174
100
AcDbVertex
100
AcDb2dVertex
 10
380.027322
 20
252.076503
 30
0.0
  0
VERTEX
  5
15C
100
AcDbEntity
  8
16
370
     9
  6
Continuous
 62
   174
100
AcDbVertex
100
AcDb2dVertex
 10
392.527322
 20
252.076503
 30
0.0
  0
SEQEND
  5
15D
100
AcDbEntity
  8
16
370
     9
  6
Continuous
 62
   174
  0
TEXT
  5
15E
100
AcDbEntity
  8
16
370
     9
  6
Continuous
 62
   174
100
AcDbText
 10
380.027322
 20
252.076503
 30
0.0
 40
5.0
  1
PIVOT
 41
0.5
 11
380.027322
 21
252.076503
 31
0.0
100
AcDbText
 73
     1
  0
TEXT
  5
15F
100
AcDbEntity
  8
16
370
     9
  6
Continuous
 62
   174
100
AcDbText
 10
314.234973
 20
210.765027
 30
0.0
 40
5.0
  1
内径%%c8
 50
90.0
 41
0.795455
 11
314.234973
 21
210.765027
 31
0.0
100
AcDbText
 73
     1
  0
TEXT
  5
160
100
AcDbEntity
  8
16
370
     9
  6
Continuous
 62
   174
100
AcDbText
 10
111.885246
 20
212.868852
 30
0.0
 40
5.0
  1
内径%%c4
 50
90.0
 41
0.795455
 11
111.885246
 21
212.868852
 31
0.0
100
AcDbText
 73
     1
  0
LINE
  5
161
100
AcDbEntity
  8
16
370
     9
  6
Continuous
 62
   174
100
AcDbLine
 10
177.641305
 20
230.33307
 30
0.0
 11
177.359471
 21
227.346337
 31
0.0
  0
LINE
  5
162
100
AcDbEntity
  8
16
370
     9
  6
Continuous
 62
   174
100
AcDbLine
 10
177.641305
 20
230.33307
 30
0.0
 11
175.903864
 21
227.887401
 31
0.0
  0
POLYLINE
  5
163
100
AcDbEntity
  8
16
370
     9
  6
Continuous
 62
   174
100
AcDb2dPolyline
 66
     1
 10
0.0
 20
0.0
 30
0.0
  0
VERTEX
  5
164
100
AcDbEntity
  8
16
370
     9
  6
Continuous
 62
   174
100
AcDbVertex
100
AcDb2dVertex
 10
177.641305
 20
230.33307
 30
0.0
  0
VERTEX
  5
165
100
AcDbEntity
  8
16
370
     9
  6
Continuous
 62
   174
100
AcDbVertex
100
AcDb2dVertex
 10
168.306011
 20
205.218579
 30
0.0
  0
VERTEX
  5
166
100
AcDbEntity
  8
16
370
     9
  6
Continuous
 62
   174
100
AcDbVertex
100
AcDb2dVertex
 10
155.806011
 20
205.218579
 30
0.0
  0
SEQEND
  5
167
100
AcDbEntity
  8
16
370
     9
  6
Continuous
 62
   174
  0
TEXT
  5
168
100
AcDbEntity
  8
16
370
     9
  6
Continuous
 62
   174
100
AcDbText
 10
155.806011
 20
205.218579
 30
0.0
 40
5.0
  1
PT1/4
 41
0.5
 11
155.806011
 21
205.218579
 31
0.0
100
AcDbText
 73
     1
  0
LINE
  5
169
100
AcDbEntity
  8
16
370
     9
  6
Continuous
 62
   174
100
AcDbLine
 10
372.556832
 20
228.873181
 30
0.0
 11
371.867346
 21
225.953488
 31
0.0
  0
LINE
  5
16A
100
AcDbEntity
  8
16
370
     9
  6
Continuous
 62
   174
100
AcDbLine
 10
372.556832
 20
228.873181
 30
0.0
 11
370.499873
 21
226.689396
 31
0.0
  0
POLYLINE
  5
16B
100
AcDbEntity
  8
16
370
     9
  6
Continuous
 62
   174
100
AcDb2dPolyline
 66
     1
 10
0.0
 20
0.0
 30
0.0
  0
VERTEX
  5
16C
100
AcDbEntity
  8
16
370
     9
  6
Continuous
 62
   174
100
AcDbVertex
100
AcDb2dVertex
 10
372.556832
 20
228.873181
 30
0.0
  0
VERTEX
  5
16D
100
AcDbEntity
  8
16
370
     9
  6
Continuous
 62
   174
100
AcDbVertex
100
AcDb2dVertex
 10
358.797814
 20
203.306011
 30
0.0
  0
VERTEX
  5
16E
100
AcDbEntity
  8
16
370
     9
  6
Continuous
 62
   174
100
AcDbVertex
100
AcDb2dVertex
 10
346.297814
 20
203.306011
 30
0.0
  0
SEQEND
  5
16F
100
AcDbEntity
  8
16
370
     9
  6
Continuous
 62
   174
  0
TEXT
  5
170
100
AcDbEntity
  8
16
370
     9
  6
Continuous
 62
   174
100
AcDbText
 10
346.297814
 20
203.306011
 30
0.0
 40
5.0
  1
PT1/4
 41
0.5
 11
346.297814
 21
203.306011
 31
0.0
100
AcDbText
 73
     1
  0
INSERT
  5
1E3
100
AcDbEntity
  8
0
370
     9
  6
Continuous
 62
     7
100
AcDbBlockReference
  2
*G17
 10
0.0
 20
0.0
 30
0.0
  0
LINE
  5
1E4
100
AcDbEntity
  8
16
370
     9
  6
Continuous
 62
   174
100
AcDbLine
 10
41.556925
 20
87.888554
 30
0.0
 11
43.595017
 21
85.687149
 31
0.0
  0
LINE
  5
1E5
100
AcDbEntity
  8
16
370
     9
  6
Continuous
 62
   174
100
AcDbLine
 10
41.556925
 20
87.888554
 30
0.0
 11
42.221262
 21
84.963036
 31
0.0
  0
POLYLINE
  5
1E6
100
AcDbEntity
  8
16
370
     9
  6
Continuous
 62
   174
100
AcDb2dPolyline
 66
     1
 10
0.0
 20
0.0
 30
0.0
  0
VERTEX
  5
1E7
100
AcDbEntity
  8
16
370
     9
  6
Continuous
 62
   174
100
AcDbVertex
100
AcDb2dVertex
 10
41.556925
 20
87.888554
 30
0.0
  0
VERTEX
  5
1E8
100
AcDbEntity
  8
16
370
     9
  6
Continuous
 62
   174
100
AcDbVertex
100
AcDb2dVertex
 10
52.308743
 20
67.490701
 30
0.0
  0
VERTEX
  5
1E9
100
AcDbEntity
  8
16
370
     9
  6
Continuous
 62
   174
100
AcDbVertex
100
AcDb2dVertex
 10
79.153005
 20
67.490701
 30
0.0
  0
SEQEND
  5
1EA
100
AcDbEntity
  8
16
370
     9
  6
Continuous
 62
   174
  0
TEXT
  5
1EB
100
AcDbEntity
  8
16
370
     9
  6
Continuous
 62
   174
100
AcDbText
 10
54.153005
 20
67.490701
 30
0.0
 40
5.0
  1
吹き出し穴
 41
0.833333
 11
54.153005
 21
67.490701
 31
0.0
100
AcDbText
 73
     1
  0
TEXT
  5
1EC
100
AcDbEntity
  8
16
370
     9
  6
Continuous
 62
   174
100
AcDbText
 10
54.221311
 20
59.574034
 30
0.0
 40
5.0
  1
%%c1*16穴
 41
0.645161
 11
54.221311
 21
59.574034
 31
0.0
100
AcDbText
 73
     1
  0
INSERT
  5
1F1
100
AcDbEntity
  8
0
370
     9
  6
Continuous
 62
     7
100
AcDbBlockReference
  2
*G18
 10
0.0
 20
0.0
 30
0.0
  0
INSERT
  5
1F6
100
AcDbEntity
  8
0
370
     9
  6
Continuous
 62
     7
100
AcDbBlockReference
  2
*G19
 10
0.0
 20
0.0
 30
0.0
  0
DIMENSION
  5
202
100
AcDbEntity
  8
16
370
     9
  6
Continuous
 62
   174
100
AcDbDimension
  2
*D20
 10
63.64071
 20
131.888554
 30
0.0
 11
63.64071
 21
108.388554
 31
0.0
 71
     5
 72
     1
 41
1.0
 42
0.0
  1
47
100
AcDbAlignedDimension
 13
45.744425
 23
131.888554
 33
0.0
 14
45.744425
 24
84.888554
 34
0.0
 50
90.0
100
AcDbRotatedDimension
  0
INSERT
  5
280
100
AcDbEntity
  8
0
370
     9
  6
Continuous
 62
     7
100
AcDbBlockReference
  2
*G21
 10
0.0
 20
0.0
 30
0.0
  0
INSERT
  5
29C
100
AcDbEntity
  8
0
370
     9
  6
Continuous
 62
     7
100
AcDbBlockReference
  2
*G22
 10
0.0
 20
0.0
 30
0.0
  0
DIMENSION
  5
2A8
100
AcDbEntity
  8
16
370
     9
  6
Continuous
 62
   174
100
AcDbDimension
  2
*D23
 10
81.284153
 20
41.310653
 30
0.0
 11
81.284153
 21
38.060653
 31
0.0
 71
     5
 72
     1
 41
1.0
 42
0.0
  1
6.5
100
AcDbAlignedDimension
 13
97.643092
 23
41.310653
 33
0.0
 14
97.643092
 24
34.810653
 34
0.0
 50
90.0
100
AcDbRotatedDimension
  0
DIMENSION
  5
2B4
100
AcDbEntity
  8
16
370
     9
  6
Continuous
 62
   174
100
AcDbDimension
  2
*D24
 10
211.721311
 20
38.060653
 30
0.0
 11
211.721311
 21
27.278952
 31
0.0
 71
     5
 72
     1
 41
1.0
 42
0.0
  1
4.35
100
AcDbAlignedDimension
 13
122.04959
 23
38.060653
 33
0.0
 14
197.251834
 24
42.410653
 34
0.0
 50
90.0
100
AcDbRotatedDimension
  0
DIMENSION
  5
2C0
100
AcDbEntity
  8
16
370
     9
  6
Continuous
 62
   174
100
AcDbDimension
  2
*D25
 10
99.643092
 20
145.666931
 30
0.0
 11
141.893092
 21
145.666931
 31
0.0
 71
     5
 72
     1
 41
1.0
 42
0.0
  1
(84.5)
100
AcDbAlignedDimension
 13
99.643092
 23
131.888554
 33
0.0
 14
184.143092
 24
113.476159
 34
0.0
100
AcDbRotatedDimension
  0
DIMENSION
  5
2CC
100
AcDbEntity
  8
16
370
     9
  6
Continuous
 62
   174
100
AcDbDimension
  2
*D26
 10
69.234973
 20
50.410653
 30
0.0
 11
69.234973
 21
42.060653
 31
0.0
 71
     5
 72
     1
 41
1.0
 42
0.0
  1
17
100
AcDbAlignedDimension
 13
166.643092
 23
50.410653
 33
0.0
 14
110.643092
 24
33.710653
 34
0.0
 50
90.0
100
AcDbRotatedDimension
  0
LINE
  5
2CD
100
AcDbEntity
  8
16
370
     9
  6
Continuous
 62
   174
100
AcDbLine
 10
184.143092
 20
108.388554
 30
0.0
 11
185.436342
 21
111.095491
 31
0.0
  0
LINE
  5
2CE
100
AcDbEntity
  8
16
370
     9
  6
Continuous
 62
   174
100
AcDbLine
 10
184.143092
 20
108.388554
 30
0.0
 11
186.616547
 21
110.086205
 31
0.0
  0
POLYLINE
  5
2CF
100
AcDbEntity
  8
16
370
     9
  6
Continuous
 62
   174
100
AcDb2dPolyline
 66
     1
 10
0.0
 20
0.0
 30
0.0
  0
VERTEX
  5
2D0
100
AcDbEntity
  8
16
370
     9
  6
Continuous
 62
   174
100
AcDbVertex
100
AcDb2dVertex
 10
184.143092
 20
108.388554
 30
0.0
  0
VERTEX
  5
2D1
100
AcDbEntity
  8
16
370
     9
  6
Continuous
 62
   174
100
AcDbVertex
100
AcDb2dVertex
 10
197.377049
 20
123.863652
 30
0.0
  0
VERTEX
  5
2D2
100
AcDbEntity
  8
16
370
     9
  6
Continuous
 62
   174
100
AcDbVertex
100
AcDb2dVertex
 10
209.877049
 20
123.863652
 30
0.0
  0
SEQEND
  5
2D3
100
AcDbEntity
  8
16
370
     9
  6
Continuous
 62
   174
  0
TEXT
  5
2D4
100
AcDbEntity
  8
16
370
     9
  6
Continuous
 62
   174
100
AcDbText
 10
197.377049
 20
123.863652
 30
0.0
 40
5.0
  1
PIVOT
 41
0.5
 11
197.377049
 21
123.863652
 31
0.0
100
AcDbText
 73
     1
  0
LINE
  5
2D5
100
AcDbEntity
  8
16
370
     9
  6
Continuous
 62
   174
100
AcDbLine
 10
186.068153
 20
101.697932
 30
0.0
 11
186.019009
 21
98.698334
 31
0.0
  0
LINE
  5
2D6
100
AcDbEntity
  8
16
370
     9
  6
Continuous
 62
   174
100
AcDbLine
 10
186.068153
 20
101.697932
 30
0.0
 11
184.525794
 21
99.124776
 31
0.0
  0
POLYLINE
  5
2D7
100
AcDbEntity
  8
16
370
     9
  6
Continuous
 62
   174
100
AcDb2dPolyline
 66
     1
 10
0.0
 20
0.0
 30
0.0
  0
VERTEX
  5
2D8
100
AcDbEntity
  8
16
370
     9
  6
Continuous
 62
   174
100
AcDbVertex
100
AcDb2dVertex
 10
186.068153
 20
101.697932
 30
0.0
  0
VERTEX
  5
2D9
100
AcDbEntity
  8
16
370
     9
  6
Continuous
 62
   174
100
AcDbVertex
100
AcDb2dVertex
 10
179.016393
 20
77.005728
 30
0.0
  0
VERTEX
  5
2DA
100
AcDbEntity
  8
16
370
     9
  6
Continuous
 62
   174
100
AcDbVertex
100
AcDb2dVertex
 10
166.516393
 20
77.005728
 30
0.0
  0
SEQEND
  5
2DB
100
AcDbEntity
  8
16
370
     9
  6
Continuous
 62
   174
  0
TEXT
  5
2DC
100
AcDbEntity
  8
16
370
     9
  6
Continuous
 62
   174
100
AcDbText
 10
166.516393
 20
77.005728
 30
0.0
 40
5.0
  1
PT1/4
 41
0.5
 11
166.516393
 21
77.005728
 31
0.0
100
AcDbText
 73
     1
  0
INSERT
  5
2E1
100
AcDbEntity
  8
0
370
     9
  6
Continuous
 62
     7
100
AcDbBlockReference
  2
*G27
 10
0.0
 20
0.0
 30
0.0
  0
INSERT
  5
2E6
100
AcDbEntity
  8
0
370
     9
  6
Continuous
 62
     7
100
AcDbBlockReference
  2
*G28
 10
0.0
 20
0.0
 30
0.0
  0
DIMENSION
  5
2F2
100
AcDbEntity
  8
16
370
     9
  6
Continuous
 62
   174
100
AcDbDimension
  2
*D29
 10
85.826503
 20
88.624581
 30
0.0
 11
85.826503
 21
108.312081
 31
0.0
 71
     5
 72
     1
 41
1.0
 42
0.0
  1
40
100
AcDbAlignedDimension
 13
92.034255
 23
88.624581
 33
0.0
 14
92.034255
 24
127.999581
 34
0.0
 50
90.0
100
AcDbRotatedDimension
  0
TEXT
  5
2F3
100
AcDbEntity
  8
16
370
     9
  6
Continuous
 62
   174
100
AcDbText
 10
84.77459
 20
116.093843
 30
0.0
 40
5.0
  1
吹き出し有効幅
 50
89.807733
 41
0.833333
 11
84.77459
 21
116.093843
 31
0.0
100
AcDbText
 73
     1
  0
DIMENSION
  5
2FF
100
AcDbEntity
  8
16
370
     9
  6
Continuous
 62
   174
100
AcDbDimension
  2
*D30
 10
363.743169
 20
147.650273
 30
0.0
 11
341.243169
 21
147.650273
 31
0.0
 71
     5
 72
     1
 41
1.0
 42
0.0
  1
(45)
100
AcDbAlignedDimension
 13
363.743169
 23
124.590102
 33
0.0
 14
318.743169
 24
136.494536
 34
0.0
100
AcDbRotatedDimension
  0
LINE
  5
300
100
AcDbEntity
  8
16
370
     9
  6
Continuous
 62
   174
100
AcDbLine
 10
363.743169
 20
120.494536
 30
0.0
 11
365.3009
 21
123.058414
 31
0.0
  0
LINE
  5
301
100
AcDbEntity
  8
16
370
     9
  6
Continuous
 62
   174
100
AcDbLine
 10
363.743169
 20
120.494536
 30
0.0
 11
366.374143
 21
121.936054
 31
0.0
  0
POLYLINE
  5
302
100
AcDbEntity
  8
16
370
     9
  6
Continuous
 62
   174
100
AcDb2dPolyline
 66
     1
 10
0.0
 20
0.0
 30
0.0
  0
VERTEX
  5
303
100
AcDbEntity
  8
16
370
     9
  6
Continuous
 62
   174
100
AcDbVertex
100
AcDb2dVertex
 10
363.743169
 20
120.494536
 30
0.0
  0
VERTEX
  5
304
100
AcDbEntity
  8
16
370
     9
  6
Continuous
 62
   174
100
AcDbVertex
100
AcDb2dVertex
 10
377.540984
 20
133.688525
 30
0.0
  0
VERTEX
  5
305
100
AcDbEntity
  8
16
370
     9
  6
Continuous
 62
   174
100
AcDbVertex
100
AcDb2dVertex
 10
390.040984
 20
133.688525
 30
0.0
  0
SEQEND
  5
306
100
AcDbEntity
  8
16
370
     9
  6
Continuous
 62
   174
  0
TEXT
  5
307
100
AcDbEntity
  8
16
370
     9
  6
Continuous
 62
   174
100
AcDbText
 10
377.540984
 20
133.688525
 30
0.0
 40
5.0
  1
PIVOT
 41
0.5
 11
377.540984
 21
133.688525
 31
0.0
100
AcDbText
 73
     1
  0
LINE
  5
308
100
AcDbEntity
  8
16
370
     9
  6
Continuous
 62
   174
100
AcDbLine
 10
363.563223
 20
113.735538
 30
0.0
 11
365.495895
 21
111.441028
 31
0.0
  0
LINE
  5
309
100
AcDbEntity
  8
16
370
     9
  6
Continuous
 62
   174
100
AcDbLine
 10
363.563223
 20
113.735538
 30
0.0
 11
364.089711
 21
110.782098
 31
0.0
  0
POLYLINE
  5
30A
100
AcDbEntity
  8
16
370
     9
  6
Continuous
 62
   174
100
AcDb2dPolyline
 66
     1
 10
0.0
 20
0.0
 30
0.0
  0
VERTEX
  5
30B
100
AcDbEntity
  8
16
370
     9
  6
Continuous
 62
   174
100
AcDbVertex
100
AcDb2dVertex
 10
363.563223
 20
113.735538
 30
0.0
  0
VERTEX
  5
30C
100
AcDbEntity
  8
16
370
     9
  6
Continuous
 62
   174
100
AcDbVertex
100
AcDb2dVertex
 10
371.420765
 20
96.967213
 30
0.0
  0
VERTEX
  5
30D
100
AcDbEntity
  8
16
370
     9
  6
Continuous
 62
   174
100
AcDbVertex
100
AcDb2dVertex
 10
386.420765
 20
96.967213
 30
0.0
  0
SEQEND
  5
30E
100
AcDbEntity
  8
16
370
     9
  6
Continuous
 62
   174
  0
TEXT
  5
30F
100
AcDbEntity
  8
16
370
     9
  6
Continuous
 62
   174
100
AcDbText
 10
371.420765
 20
96.967213
 30
0.0
 40
5.0
  1
NPT1/4
 41
0.5
 11
371.420765
 21
96.967213
 31
0.0
100
AcDbText
 73
     1
  0
LINE
  5
310
100
AcDbEntity
  8
16
370
     9
  6
PHANTOM
 62
   174
100
AcDbLine
 10
20.273224
 20
177.103825
 30
0.0
 11
401.639344
 21
177.103825
 31
0.0
  0
LINE
  5
311
100
AcDbEntity
  8
16
370
     9
  6
PHANTOM
 62
   174
100
AcDbLine
 10
212.295082
 20
281.147541
 30
0.0
 11
212.295082
 21
177.103825
 31
0.0
  0
LINE
  5
312
100
AcDbEntity
  8
16
370
     9
  6
PHANTOM
 62
   174
100
AcDbLine
 10
222.240437
 20
177.103825
 30
0.0
 11
222.240437
 21
57.377049
 31
0.0
  0
TEXT
  5
313
100
AcDbEntity
  8
16
370
     9
  6
PHANTOM
 62
   174
100
AcDbText
 10
101.36612
 20
268.907104
 30
0.0
 40
5.0
  1
MAX 150mm
 41
0.523256
 11
101.36612
 21
268.907104
 31
0.0
100
AcDbText
 73
     1
  0
TEXT
  5
314
100
AcDbEntity
  8
16
370
     9
  6
PHANTOM
 62
   174
100
AcDbText
 10
292.622951
 20
267.759563
 30
0.0
 40
5.0
  1
MAX 150mm
 41
0.523256
 11
292.622951
 21
267.759563
 31
0.0
100
AcDbText
 73
     1
  0
TEXT
  5
315
100
AcDbEntity
  8
16
370
     9
  6
PHANTOM
 62
   174
100
AcDbText
 10
247.486339
 20
185.136612
 30
0.0
 40
8.0
  1
%%c１０ ノズル
 41
0.855263
 11
247.486339
 21
185.136612
 31
0.0
100
AcDbText
 73
     1
  0
TEXT
  5
316
100
AcDbEntity
  8
16
370
     9
  6
PHANTOM
 62
   174
100
AcDbText
 10
97.15847
 20
162.185792
 30
0.0
 40
8.0
  1
№７２７ ノズル
 41
0.833333
 11
97.15847
 21
162.185792
 31
0.0
100
AcDbText
 73
     1
  0
TEXT
  5
317
100
AcDbEntity
  8
16
370
     9
  6
PHANTOM
 62
   174
100
AcDbText
 10
249.398907
 20
161.420765
 30
0.0
 40
8.0
  1
フレア ノズル
 41
0.833333
 11
249.398907
 21
161.420765
 31
0.0
100
AcDbText
 73
     1
  0
TEXT
  5
318
100
AcDbEntity
  8
16
370
     9
  6
PHANTOM
 62
   174
100
AcDbText
 10
311.36612
 20
163.046448
 30
0.0
 40
6.0
  1
抗酸性ＰＯＭ　黄色
 41
0.833333
 11
311.36612
 21
163.046448
 31
0.0
100
AcDbText
 73
     1
  0
TEXT
  5
319
100
AcDbEntity
  8
16
370
     9
  6
PHANTOM
 62
   174
100
AcDbText
 10
166.393443
 20
163.428962
 30
0.0
 40
6.0
  1
ＡＢＳ　黄色
 41
0.833333
 11
166.393443
 21
163.428962
 31
0.0
100
AcDbText
 73
     1
  0
INSERT
  5
339
100
AcDbEntity
  8
0
370
     9
  6
Continuous
 62
     7
100
AcDbBlockReference
  2
*G31
 10
0.0
 20
0.0
 30
0.0
  0
DIMENSION
  5
345
100
AcDbEntity
  8
16
370
     9
  6
Continuous
 62
   174
100
AcDbDimension
  2
*D32
 10
277.84447
 20
134.494272
 30
0.0
 11
277.84447
 21
120.494272
 31
0.0
 71
     5
 72
     1
 41
1.0
 42
0.0
  1
28
100
AcDbAlignedDimension
 13
264.604095
 23
134.494272
 33
0.0
 14
264.604095
 24
106.494272
 34
0.0
 50
90.0
100
AcDbRotatedDimension
  0
DIMENSION
  5
351
100
AcDbEntity
  8
16
370
     9
  6
Continuous
 62
   174
100
AcDbDimension
  2
*D33
 10
244.757038
 20
107.994272
 30
0.0
 11
244.757038
 21
120.494272
 31
0.0
 71
     5
 72
     1
 41
1.0
 42
0.0
  1
25
100
AcDbAlignedDimension
 13
258.104095
 23
107.994272
 33
0.0
 14
258.104095
 24
132.994272
 34
0.0
 50
90.0
100
AcDbRotatedDimension
  0
TEXT
  5
352
100
AcDbEntity
  8
16
370
     9
  6
Continuous
 62
   174
100
AcDbText
 10
234.046656
 20
83.265027
 30
0.0
 40
5.0
  1
吹き出しｽﾘｯﾄ幅
 41
0.7
 11
234.046656
 21
83.265027
 31
0.0
100
AcDbText
 73
     1
  0
DIMENSION
  5
35E
100
AcDbEntity
  8
16
370
     9
  6
Continuous
 62
   174
100
AcDbDimension
  2
*D34
 10
260.104095
 20
93.338798
 30
0.0
 11
253.937366
 21
93.338798
 31
0.0
 71
     5
 72
     1
 41
1.0
 42
0.0
  1
1
100
AcDbAlignedDimension
 13
260.104095
 23
105.994799
 33
0.0
 14
261.104095
 24
105.994799
 34
0.0
100
AcDbRotatedDimension
  0
DIMENSION
  5
36A
100
AcDbEntity
  8
16
370
     9
  6
Continuous
 62
   174
100
AcDbDimension
  2
*D35
 10
382.426374
 20
86.2458
 30
0.0
 11
382.426374
 21
77.9458
 31
0.0
 71
     5
 72
     1
 41
1.0
 42
0.0
  1
φ17
100
AcDbAlignedDimension
 13
347.746066
 23
86.2458
 33
0.0
 14
347.746066
 24
69.6458
 34
0.0
 50
90.0
100
AcDbRotatedDimension
  0
INSERT
  5
371
100
AcDbEntity
  8
0
370
     9
  6
Continuous
 62
     7
100
AcDbBlockReference
  2
*G36
 10
0.0
 20
0.0
 30
0.0
  0
INSERT
  5
379
100
AcDbEntity
  8
0
370
     9
  6
Continuous
 62
     7
100
AcDbBlockReference
  2
*G37
 10
0.0
 20
0.0
 30
0.0
  0
DIMENSION
  5
383
100
AcDbEntity
  8
16
370
     9
  6
Continuous
 62
   174
100
AcDbDimension
  2
*D38
 10
310.497203
 20
136.723988
 30
0.0
 11
304.39922
 21
120.494536
 31
0.0
 70
     2
 71
     5
 72
     1
 41
1.0
 42
0.0
  1
50ﾟ
100
AcDb2LineAngularDimension
 13
345.301376
 23
120.494536
 33
0.0
 14
310.497203
 24
104.265083
 34
0.0
 15
345.301376
 25
120.494536
 35
0.0
 16
306.89922
 26
120.494536
 36
0.0
  0
DIMENSION
  5
38D
100
AcDbEntity
  8
16
370
     9
  6
Continuous
 62
   174
100
AcDbDimension
  2
*D39
 10
311.207155
 20
93.934831
 30
0.0
 11
305.162472
 21
77.9458
 31
0.0
 70
     2
 71
     5
 72
     1
 41
1.0
 42
0.0
  1
50ﾟ
100
AcDb2LineAngularDimension
 13
345.495743
 23
77.9458
 33
0.0
 14
311.207155
 24
61.956769
 34
0.0
 15
345.495743
 25
77.9458
 35
0.0
 16
307.662472
 26
77.9458
 36
0.0
  0
LINE
  5
38E
100
AcDbEntity
  8
16
370
     9
  6
CENTER
 62
     1
100
AcDbLine
 10
308.409197
 20
137.697641
 30
0.0
 11
324.735985
 21
130.084335
 31
0.0
  0
LINE
  5
38F
100
AcDbEntity
  8
16
370
     9
  6
CENTER
 62
     1
100
AcDbLine
 10
308.346956
 20
103.262406
 30
0.0
 11
324.735985
 21
110.904736
 31
0.0
  0
INSERT
  5
3B1
100
AcDbEntity
  8
0
370
     9
  6
Continuous
 62
     7
100
AcDbBlockReference
  2
*G40
 10
0.0
 20
0.0
 30
0.0
  0
LINE
  5
3B2
100
AcDbEntity
  8
16
370
     9
  6
CENTER
 62
     1
100
AcDbLine
 10
308.961876
 20
94.981822
 30
0.0
 11
325.556446
 21
87.243647
 31
0.0
  0
LINE
  5
3B3
100
AcDbEntity
  8
16
370
     9
  6
CENTER
 62
     1
100
AcDbLine
 10
309.369677
 20
61.099939
 30
0.0
 11
325.556446
 21
68.647953
 31
0.0
  0
TEXT
  5
3B4
100
AcDbEntity
  8
16
370
     9
  6
Continuous
 62
   174
100
AcDbText
 10
300.012762
 20
110.791885
 30
0.0
 40
5.0
  1
首振り範囲
 50
90.0
 41
0.833333
 11
300.012762
 21
110.791885
 31
0.0
100
AcDbText
 73
     1
  0
TEXT
  5
3B5
100
AcDbEntity
  8
16
370
     9
  6
Continuous
 62
   174
100
AcDbText
 10
297.485929
 20
65.114529
 30
0.0
 40
5.0
  1
首振り範囲
 50
90.0
 41
0.833333
 11
297.485929
 21
65.114529
 31
0.0
100
AcDbText
 73
     1
  0
INSERT
  5
3D7
100
AcDbEntity
  8
0
370
     9
  6
Continuous
 62
     7
100
AcDbBlockReference
  2
*G41
 10
0.0
 20
0.0
 30
0.0
  0
TEXT
  5
3D8
100
AcDbEntity
  8
16
370
     9
  6
PHANTOM
 62
   174
100
AcDbText
 10
309.246199
 20
186.571038
 30
0.0
 40
6.0
  1
パイプ：ＳＵＳ３０４
 41
0.694444
 11
309.246199
 21
186.571038
 31
0.0
100
AcDbText
 73
     1
  0
TEXT
  5
3D9
100
AcDbEntity
  8
16
370
     9
  6
PHANTOM
 62
   174
100
AcDbText
 10
309.246199
 20
179.059365
 30
0.0
 40
6.0
  1
継手：黄銅+ニッケルメッキ
 41
0.676407
 11
309.246199
 21
179.059365
 31
0.0
100
AcDbText
 73
     1
  0
TEXT
  5
3DA
100
AcDbEntity
  8
16
370
     9
  6
PHANTOM
 62
   174
100
AcDbText
 10
91.000447
 20
185.136612
 30
0.0
 40
8.0
  1
%%c６ ノズル
 41
0.859375
 11
91.000447
 21
185.136612
 31
0.0
100
AcDbText
 73
     1
  0
TEXT
  5
3DB
100
AcDbEntity
  8
16
370
     9
  6
PHANTOM
 62
   174
100
AcDbText
 10
142.448534
 20
186.571038
 30
0.0
 40
6.0
  1
パイプ：ＳＵＳ３０４
 41
0.694444
 11
142.448534
 21
186.571038
 31
0.0
100
AcDbText
 73
     1
  0
TEXT
  5
3DC
100
AcDbEntity
  8
16
370
     9
  6
PHANTOM
 62
   174
100
AcDbText
 10
142.448534
 20
179.059365
 30
0.0
 40
6.0
  1
継手：黄銅+ニッケルメッキ
 41
0.676407
 11
142.448534
 21
179.059365
 31
0.0
100
AcDbText
 73
     1
  0
ENDSEC
  0
SECTION
  2
OBJECTS
  0
DICTIONARY
  5
19
100
AcDbDictionary
280
     0
281
     1
  3
ACAD_GROUP
350
1A
  3
ACAD_MLINESTYLE
350
1B
  3
ACAD_LAYOUT
350
1E
  3
ACAD_PLOTSETTINGS
350
22
  3
ACAD_PLOTSTYLENAME
350
1F
  3
ACAD_WIPEOUT_VARS
350
23
  0
DICTIONARY
  5
1A
102
{ACAD_REACTORS
330
19
102
}
100
AcDbDictionary
280
     0
281
     1
  0
DICTIONARY
  5
1B
102
{ACAD_REACTORS
330
19
102
}
100
AcDbDictionary
280
     0
281
     1
  3
Standard
350
1C
  0
MLINESTYLE
  5
1C
102
{ACAD_REACTORS
330
1B
102
}
100
AcDbMlineStyle
  2
Standard
 70
     0
  3

 62
     0
 51
90.0
 52
90.0
 71
     2
 49
0.5
 62
   256
  6
BYLAYER
 49
-0.5
 62
   256
  6
BYLAYER
  0
ACDBDICTIONARYWDFLT
  5
1F
102
{ACAD_REACTORS
330
19
102
}
100
AcDbDictionary
281
     1
  3
Normal
350
1D
100
AcDbDictionaryWithDefault
340
1D
  0
ACDBPLACEHOLDER
  5
1D
102
{ACAD_REACTORS
330
1F
102
}
  0
LAYOUT
  5
20
102
{ACAD_REACTORS
330
1E
102
}
100
AcDbPlotSettings
  1

  2

  4

  6

 40
0.0
 41
0.0
 42
0.0
 43
0.0
 44
0.0
 45
0.0
 46
0.0
 47
0.0
 48
0.0
 49
0.0
140
0.0
141
0.0
142
1.0
143
1.0
 70
  1024
 72
     0
 73
     0
 74
     0
  7

 75
     0
147
1.0
148
0.0
149
0.0
100
AcDbLayout
  1
Model
 70
     0
 71
     0
 10
0.0
 20
0.0
 11
0.0
 21
0.0
 12
0.0
 22
0.0
 32
0.0
 14
0.0
 24
0.0
 34
0.0
 15
0.0
 25
0.0
 35
0.0
146
0.0
 13
0.0
 23
0.0
 33
0.0
 16
0.0
 26
0.0
 36
0.0
 17
0.0
 27
0.0
 37
0.0
 76
     0
330
A
331
0
345
0
346
0
  0
LAYOUT
  5
21
102
{ACAD_REACTORS
330
1E
102
}
100
AcDbPlotSettings
  1

  2

  4

  6

 40
0.0
 41
0.0
 42
0.0
 43
0.0
 44
0.0
 45
0.0
 46
0.0
 47
0.0
 48
0.0
 49
0.0
140
0.0
141
0.0
142
1.0
143
1.0
 70
     0
 72
     0
 73
     0
 74
     0
  7

 75
     0
147
1.0
148
0.0
149
0.0
100
AcDbLayout
  1
Layout1
 70
     0
 71
     0
 10
0.0
 20
0.0
 11
0.0
 21
0.0
 12
0.0
 22
0.0
 32
0.0
 14
0.0
 24
0.0
 34
0.0
 15
0.0
 25
0.0
 35
0.0
146
0.0
 13
0.0
 23
0.0
 33
0.0
 16
0.0
 26
0.0
 36
0.0
 17
0.0
 27
0.0
 37
0.0
 76
     0
330
B
331
0
345
0
346
0
  0
DICTIONARY
  5
1E
102
{ACAD_REACTORS
330
19
102
}
100
AcDbDictionary
280
     0
281
     1
  3
Layout1
350
21
  3
Model
350
20
  0
DICTIONARY
  5
22
102
{ACAD_REACTORS
330
19
102
}
100
AcDbDictionary
280
     0
281
     1
  0
WIPEOUTVARIABLES
  5
23
100
AcDbWipeoutVariables
 70
     1
  0
ENDSEC
  0
EOF
